Oops.. Este post tiene los enlaces eliminados!

Identi revisa las denuncias de los usuarios en busca de enlaces eliminados que no dejan descargar los archivos, este mensaje te informa que este post que estas viendo tiene los enlaces eliminados.

Usa el Buscador

Por favor, te recomendamos que uses el buscador para encontrar más alternativas.

Guns N' Roses Chinese Democracy (2008) Ape (Mg)

  • Categoría: Reciclaje
  • Publicado hace más de 3 años











Información:


Formato: Ape (image+.cue) + Log

Covers: En el rar

Año: 2008



Lista de canciones:


01. Chinese Democracy 04:43

02. Shackler's Revenge 03:36

03. Better 04:58

04. Street Of Dreams 04:46

05. If The World 04:54

06. There Was A Time 06:41

07. Catcher In The Rye 05:52

08. Scraped 03:30

09. Riad N' The Bedouins 04:10

10. Sorry 06:14

11. I.R.S. 04:28

12. Madagascar 05:37

13. This I Love 05:34

14. Prostitute 06:15





Log:

Exact Audio Copy V0.99 prebeta 5 from 4. May 2009

EAC extraction logfile from 20. September 2009, 2:23

Guns N' Roses / Chinese Democracy

Used drive  : SAMSUNG CD-ROM SC-148A   Adapter: 1  ID: 1

Read mode               : Secure
Utilize accurate stream : Yes
Defeat audio cache      : Yes
Make use of C2 pointers : No

Read offset correction                      : 12
Overread into Lead-In and Lead-Out          : Yes
Fill up missing offset samples with silence : Yes
Delete leading and trailing silent blocks   : No
Null samples used in CRC calculations       : Yes
Used interface                              : Native Win32 interface for Win NT & 2000

Used output format : Internal WAV Routines
Sample format      : 44.100 Hz; 16 Bit; Stereo


TOC of the extracted CD

     Track |   Start  |  Length  | Start sector | End sector 
    ---------------------------------------------------------
        1  |  0:00.00 |  4:43.16 |         0    |    21240   
        2  |  4:43.16 |  3:36.70 |     21241    |    37510   
        3  |  8:20.11 |  4:58.54 |     37511    |    59914   
        4  | 13:18.65 |  4:46.56 |     59915    |    81420   
        5  | 18:05.46 |  4:54.32 |     81421    |   103502   
        6  | 23:00.03 |  6:41.10 |    103503    |   133587   
        7  | 29:41.13 |  5:52.74 |    133588    |   160061   
        8  | 35:34.12 |  3:30.57 |    160062    |   175868   
        9  | 39:04.69 |  4:10.13 |    175869    |   194631   
       10  | 43:15.07 |  6:14.38 |    194632    |   222719   
       11  | 49:29.45 |  4:28.62 |    222720    |   242881   
       12  | 53:58.32 |  5:37.73 |    242882    |   268229   
       13  | 59:36.30 |  5:34.28 |    268230    |   293307   
       14  | 65:10.58 |  6:15.58 |    293308    |   321490   


Range status and errors

Selected range

     Filename C:Guns N' Roses - 2008 - Chinese DemocracyGuns N' Roses - 2008 - Chinese Democracy.wav

     Peak level 100.0 %
     Range quality 100.0 %
     Test CRC D7E11DF6
     Copy CRC D7E11DF6
     Copy OK

No errors occurred

 
AccurateRip summary
 
Track  1  accurately ripped (confidence 200) 5806611B]
Track  6  accurately ripped (confidence 200) 3D3AF3A6]
Track 11  accurately ripped (confidence 200)




Guns N' Roses Chinese Democracy (2008) Ape (Mg)
12 Puntos Score: 6/10
Visitas: 483 Favoritos: 0
Ver los usuarios que votaron...
4 Comentarios Guns N' Roses Chinese Democracy (2008) Ape (Mg)
Muy buena calidad. Gracias x compartir
@R0BERTIT0
Gracias por pasar y por los puntos amigo  
gracias por tu aporte +2
@linkmaker
Gracias por pasar y por los puntos  
Para dejar un comentario Registrate! o.. eres ya usuario? Accede!