Oops.. Este post tiene los enlaces eliminados!

Identi revisa las denuncias de los usuarios en busca de enlaces eliminados que no dejan descargar los archivos, este mensaje te informa que este post que estas viendo tiene los enlaces eliminados.

Usa el Buscador

Por favor, te recomendamos que uses el buscador para encontrar más alternativas.

John Fogerty - Revival (2007)(Flac)(Mg)

  • Categoría: Reciclaje
  • Publicado hace más de 3 años











Información:


Formato: Flac (image+.cue) + Log

Scans: En el rar

Año: 2007



Lista de canciones:


01 - Don't You Wish It Was True

02 - Gunslinger

03 - Creedence Song

04 - Broken Down Cowboy

05 - River Is Waiting

06 - Long Dark Night

07 - Summer Of Love

08 - Natural Thing

09 - It Ain't Right

10 - I Can't Take It No More

11 - Somebody Help Me

12 - Longshot





Log:

Exact Audio Copy V1.0 beta 3 from 29. August 2011

EAC extraction logfile from 26. December 2011, 21:46

John Fogerty / Revival (Fantasy 0888072300019)

Used drive  : PIONEER DVD-RW  DVR-219L   Adapter: 2  ID: 0

Read mode               : Secure
Utilize accurate stream : Yes
Defeat audio cache      : Yes
Make use of C2 pointers : No

Read offset correction                      : 6
Overread into Lead-In and Lead-Out          : No
Fill up missing offset samples with silence : Yes
Delete leading and trailing silent blocks   : No
Null samples used in CRC calculations       : Yes
Used interface                              : Native Win32 interface for Win NT & 2000

Used output format              : User Defined Encoder
Selected bitrate                : 1024 kBit/s
Quality                         : High
Add ID3 tag                     : No
Command line compressor         : C:Program FilesExact Audio CopyFlacflac.exe
Additional command line options :  -V -8 -T "Genre=%genre%" -T "Artist=%artist%" -T "Title=%title%" -T "Album=%albumtitle%" -T "Date=%year%" -T "Tracknumber=%tracknr%" -T "Comment=%comment%" %source%


TOC of the extracted CD

     Track |   Start  |  Length  | Start sector | End sector 
    ---------------------------------------------------------
        1  |  0:00.00 |  4:10.74 |         0    |    18823   
        2  |  4:10.74 |  3:31.36 |     18824    |    34684   
        3  |  7:42.35 |  3:49.24 |     34685    |    51883   
        4  | 11:31.59 |  3:51.55 |     51884    |    69263   
        5  | 15:23.39 |  3:22.68 |     69264    |    84481   
        6  | 18:46.32 |  3:07.53 |     84482    |    98559   
        7  | 21:54.10 |  3:19.63 |     98560    |   113547   
        8  | 25:13.73 |  4:00.36 |    113548    |   131583   
        9  | 29:14.34 |  1:49.55 |    131584    |   139813   
       10  | 31:04.14 |  1:39.36 |    139814    |   147274   
       11  | 32:43.50 |  4:27.42 |    147275    |   167341   
       12  | 37:11.17 |  3:37.68 |    167342    |   183684   


Range status and errors

Selected range

     Filename H:John Fogerty - RevivalCdJohn Fogerty - Revival (Fantasy 0888072300019).wav

     Peak level 100.0 %
     Extraction speed 1.5 X
     Range quality 100.0 %
     Test CRC 6BEBA7C5
     Copy CRC 6BEBA7C5
     Copy OK

No errors occurred

 
AccurateRip summary
 
Track  1  accurately ripped (confidence 5) D5D859AA]  (AR v1)
Track  4  accurately ripped (confidence 5) 1BDC2F3A]  (AR v1)
Track  7  accurately ripped (confidence 5) 2E074DF1]  (AR v1)
Track 10  accurately ripped (confidence 5) 3D3AC62E]  (AR v1)
 
All tracks accurately ripped

End of status report

==== Log checksum 8FAFD4C6B3AC21F87D295EB1308E326DA2DE87D22FEF4B8CF05E6569FC3575DD ====









Contraseña: ellocoboni





John Fogerty - Revival (2007)(Flac)(Mg)
10 Puntos Score: 10/10
Visitas: 314 Favoritos: 1
Ver los usuarios que votaron...
4 Comentarios John Fogerty - Revival (2007)(Flac)(Mg)
Gracias Amigo, Que buenos aportes.
Gracias x compartir
@R0BERTIT0
Gracias por pasar y por los puntos  
Para dejar un comentario Registrate! o.. eres ya usuario? Accede!