Oops.. Este post tiene los enlaces eliminados!

Identi revisa las denuncias de los usuarios en busca de enlaces eliminados que no dejan descargar los archivos, este mensaje te informa que este post que estas viendo tiene los enlaces eliminados.

Usa el Buscador

Por favor, te recomendamos que uses el buscador para encontrar más alternativas.

John Fogerty - The Long Road Home In Concert (Flac

  • Categoría: Reciclaje
  • Publicado hace más de 3 años












Información:


Formato: Flac (image+.cue) + Log

Año: 2006

Servidor: Mega




Lista de canciones:


CD 1


01. Intro

02. Travelin' Band

03. Green River

04. Who'll Stop The Rain

05. Blue Moon Nights

06. Lodi

07. Lookin' Out My Back Door

08. Hot Rod Heart

09. Rambunctious Boy

10. She's Got Baggage

11. Born On The Bayou

12. Bootleg

13. Run Through The Jungle

14. Deja Vu (All Over Again)





Log:

Exact Audio Copy V0.99 prebeta 4 from 23. January 2008

EAC extraction logfile from 23. November 2008, 11:58

John Fogerty / The Long Road Home: In Concert

Used drive  : TSSTcorpCDDVDW SH-S223F   Adapter: 4  ID: 0

Read mode               : Secure
Utilize accurate stream : Yes
Defeat audio cache      : No
Make use of C2 pointers : No

Read offset correction                      : 6
Overread into Lead-In and Lead-Out          : No
Fill up missing offset samples with silence : Yes
Delete leading and trailing silent blocks   : No
Null samples used in CRC calculations       : Yes
Used interface                              : Native Win32 interface for Win NT & 2000

Used output format              : User Defined Encoder
Selected bitrate                : 128 kBit/s
Quality                         : High
Add ID3 tag                     : No
Command line compressor         : C:Program FilesExact Audio CopyFlacflac.exe
Additional command line options : V -8 -T "artist=%a" -T "title=%t" -T "album=%g" -T "date=%y" -T "tracknumber=%n" -T "genre=%m" %s  


TOC of the extracted CD

     Track |   Start  |  Length  | Start sector | End sector 
    ---------------------------------------------------------
        1  |  0:00.00 |  0:37.64 |         0    |     2838   
        2  |  0:37.64 |  2:24.24 |      2839    |    13662   
        3  |  3:02.13 |  3:21.43 |     13663    |    28780   
        4  |  6:23.56 |  3:02.62 |     28781    |    42492   
        5  |  9:26.43 |  3:21.61 |     42493    |    57628   
        6  | 12:48.29 |  3:39.69 |     57629    |    74122   
        7  | 16:28.23 |  2:48.18 |     74123    |    86740   
        8  | 19:16.41 |  4:32.39 |     86741    |   107179   
        9  | 23:49.05 |  3:48.72 |    107180    |   124351   
       10  | 27:38.02 |  3:18.48 |    124352    |   139249   
       11  | 30:56.50 |  4:10.22 |    139250    |   158021   
       12  | 35:06.72 |  2:51.60 |    158022    |   170906   
       13  | 37:58.57 |  4:19.70 |    170907    |   190401   
       14  | 42:18.52 |  3:56.30 |    190402    |   208131   


Range status and errors

Selected range

     Filename D:MusicJohn Fogerty - The Long Road Home - In Concert (Disc 1).wav

     Peak level 100.0 %
     Range quality 99.9 %
     Test CRC A3E9C926
     Copy CRC A3E9C926
     Copy OK

No errors occurred

 
AccurateRip summary
 
Track  1  accurately ripped (confidence 11) C3F0245C]
Track  4  accurately ripped (confidence 11) A5B8AB09]
Track  7  accurately ripped (confidence 11) A51DAA22]
Track 10  accurately ripped (confidence 11) 50A6CB7C]
Track 13  accurately ripped (confidence 11)
CD 2


01. Have You Ever Seen The Rain?

02. Tombstone Shadow

03. Keep On Chooglin'

04. Sweet Hitch-Hiker

05. Hey Tonight

06. Down On The Corner

07. Centerfield

08. Up Around The Bend

09. The Old Man Down The Road

10. Fortunate Son

11. Bad Moon Rising

12. Rockin' All Over The World

13. Proud Mary





Log:

Exact Audio Copy V0.99 prebeta 4 from 23. January 2008

EAC extraction logfile from 23. November 2008, 12:11

John Fogerty / The Long Road Home: In Concert

Used drive  : TSSTcorpCDDVDW SH-S223F   Adapter: 4  ID: 0

Read mode               : Secure
Utilize accurate stream : Yes
Defeat audio cache      : No
Make use of C2 pointers : No

Read offset correction                      : 6
Overread into Lead-In and Lead-Out          : No
Fill up missing offset samples with silence : Yes
Delete leading and trailing silent blocks   : No
Null samples used in CRC calculations       : Yes
Used interface                              : Native Win32 interface for Win NT & 2000

Used output format              : User Defined Encoder
Selected bitrate                : 128 kBit/s
Quality                         : High
Add ID3 tag                     : No
Command line compressor         : C:Program FilesExact Audio CopyFlacflac.exe
Additional command line options : V -8 -T "artist=%a" -T "title=%t" -T "album=%g" -T "date=%y" -T "tracknumber=%n" -T "genre=%m" %s  


TOC of the extracted CD

     Track |   Start  |  Length  | Start sector | End sector 
    ---------------------------------------------------------
        1  |  0:00.00 |  2:46.70 |         0    |    12519   
        2  |  2:46.70 |  3:54.16 |     12520    |    30085   
        3  |  6:41.11 |  4:09.07 |     30086    |    48767   
        4  | 10:50.18 |  2:49.07 |     48768    |    61449   
        5  | 13:39.25 |  2:30.24 |     61450    |    72723   
        6  | 16:09.49 |  2:56.20 |     72724    |    85943   
        7  | 19:05.69 |  3:55.19 |     85944    |   103587   
        8  | 23:01.13 |  2:49.65 |    103588    |   116327   
        9  | 25:51.03 |  4:16.00 |    116328    |   135527   
       10  | 30:07.03 |  2:52.35 |    135528    |   148462   
       11  | 32:59.38 |  2:17.00 |    148463    |   158737   
       12  | 35:16.38 |  3:19.15 |    158738    |   173677   
       13  | 38:35.53 |  3:56.64 |    173678    |   191441   


Range status and errors

Selected range

     Filename D:MusicJohn Fogerty - The Long Road Home - In Concert (Disc 2).wav

     Peak level 100.0 %
     Range quality 100.0 %
     Test CRC 528D8B4C
     Copy CRC 528D8B4C
     Copy OK

No errors occurred

 
AccurateRip summary
 
Track  1  accurately ripped (confidence 12) D0BA7E1B]
Track  4  accurately ripped (confidence 12) 38973B04]
Track  7  accurately ripped (confidence 12) DCB73903]
Track 10  accurately ripped (confidence 12) CA21B681]
Track 13  accurately ripped (confidence 12)




Contraseña: ellocoboni





DVD del concierto







John Fogerty - The Long Road Home In Concert (Flac
10 Puntos Score: 10/10
Visitas: 535 Favoritos: 0
Ver los usuarios que votaron...
2 Comentarios John Fogerty - The Long Road Home In Concert (Flac
Gracias x compartir
@R0BERTIT0
Gracias por pasar amigo y por los puntos  , saludos
Para dejar un comentario Registrate! o.. eres ya usuario? Accede!