El Conjuro [1080p] [4.5 GB] [Latino]

El Conjuro [1080p] [4.5 GB] [Latino]













INFORMACION RELEVANTE

FORMATO: MKV
GENERO: | Terror| 

TAMANO : 4.5GB
RESOLUCION : 1920x1080
IDIOMA:  Latino (5.1)
DURACION: 1h 51mn
SOURCE: 1080p BluRay





SINOPSIS




La película esta basada en la historia real de la familia Perron y sus encuentros sobrenaturales en su casa de Rhode Island. Ed y Lorraine Warren, investigadores de renombre en el mundo de los fenómenos paranormales, son llamados por una familia aterrorizada por una presencia oscura en una granja aislada. Obligados a enfrentarse a una poderosa entidad demoníaca, los Warren se encontraron atrapados en el caso más terrorífico de sus vidas


General
Unique ID                                : 230492271655437432086141658423333717279 (0xAD673261086B97E08D998BE2F8D7851F)
Format                                   : Matroska
Format version                           : Version 4 / Version 2
File size                                : 4.35 GiB
Duration                                 : 1h 51mn
Overall bit rate                         : 5 565 Kbps
Movie name                               : El.Conjuro.2013.1080p-Dialfoar
Encoded date                             : UTC 2013-10-17 12:23:33
Writing application                      : mkvmerge v6.3.0 ('You can't stop me!') built on Jun 28 2013 20:09:41
Writing library                          : libebml v1.3.0 + libmatroska v1.4.0

Video
ID                                       : 1
Format                                   : AVC
Format/Info                              : Advanced Video Codec
Format profile                           : [email protected]
Format settings, CABAC                   : Yes
Format settings, ReFrames                : 4 frames
Codec ID                                 : V_MPEG4/ISO/AVC
Duration                                 : 1h 51mn
Bit rate                                 : 5 142 Kbps
Width                                    : 1 920 pixels
Height                                   : 1 080 pixels
Display aspect ratio                     : 16:9
Frame rate mode                          : Constant
Frame rate                               : 23.976 fps
Color space                              : YUV
Chroma subsampling                       : 4:2:0
Bit depth                                : 8 bits
Scan type                                : Progressive
Bits/(Pixel*Frame)                       : 0.103
Stream size                              : 3.92 GiB (90%)
Language                                 : Spanish
Default                                  : Yes
Forced                                   : No

Audio
ID                                       : 2
Format                                   : AC-3
Format/Info                              : Audio Coding 3
Mode extension                           : CM (complete main)
Format settings, Endianness              : Big
Codec ID                                 : A_AC3
Duration                                 : 1h 51mn
Bit rate mode                            : Constant
Bit rate                                 : 448 Kbps
Channel count                            : 6 channels
Channel positions                        : Front: L C R, Side: L R, LFE
Sampling rate                            : 48.0 KHz
Bit depth                                : 16 bits
Compression mode                         : Lossy
Stream size                              : 359 MiB (8%)
Default                                  : Yes
Forced                                   : No

Text
ID                                       : 3
Format                                   : UTF-8
Codec ID                                 : S_TEXT/UTF8
Codec ID/Info                            : UTF-8 Plain Text
Default                                  : Yes
Forced                                   : No


















Dialfoar
El Conjuro [1080p] [4.5 GB] [Latino]
25 Puntos Score: 8.3/10
Visitas: 3172 Favoritos: 6
Ver los usuarios que votaron...
4 Comentarios El Conjuro [1080p] [4.5 GB] [Latino]
Estupendo aporte compa, gracias por compartir  
Saludos
Se agradece la up, descargando.
como lo descomprimo
@lyoncat  click derecho --> extraer ficheros aqui --> Contrase?
Para dejar un comentario Registrate! o.. eres ya usuario? Accede!