John Fogerty - The Long Road Home (2005)(Flac)(Mg)














Información:


Formato: Flac (image+.cue) + Log

Covers: En el rar

Año: 2005



Lista de canciones:


01 Born on the Bayou (CCR) 

02 Bad Moon Rising (CCR) 

03 Centerfield (J. Fogerty) 

04 Who'll Stop the Rain (CCR) 

05 Rambunctious Boy (J. Fogerty) 

06 Fortunate Son (CCR) 

07 Lookin' Out My Back Door (CCR) 

08 Up Around the Bend (CCR) 

09 Almost Saturday Night [Live] (J. Fogerty)

10 Down on the Corner (CCR) 

11 Bootleg [Live] (J. Fogerty) 

12 Have You Ever Seen the Rain? (CCR) 

13 Sweet Hitch-Hiker (CCR) 

14 Hey Tonight [Live] (J. Fogerty) 

15 The Old Man Down the Road (J. Fogerty) 

16 Rockin' All Over the World [Live] (J. Fogerty) 

17 Lodi (CCR) 

18 Keep On Chooglin' [Live] (J. Fogerty) 

19 Green River (CCR) 

20 Deja Vu (All Over Again) (J. Fogerty) 

21 Run Through the Jungle (CCR) 

22 Hot Rod Heart (J. Fogerty) 

23 Travelin' Band (CCR) 

24 Proud Mary (CCR) 

25 Fortunate Son [Live] (J. Fogerty) 





Log:

Exact Audio Copy V0.99 prebeta 4 from 23. January 2008

Îò÷¸ò EAC îá èçâëå÷åíèè, âûïîëíåííîì 9. îêòÿáðÿ 2008, 16:46

Various / The Long Road Home

Äèñêîâîä: PIONEER DVD-RW  DVR-112D   Adapter: 1  ID: 0

Ðåæèì ÷òåíèÿ                 : Äîñòîâåðíîñòü
Èñïîëüçîâàíèå òî÷íîãî ïîòîêà : Äà
Îòêëþ÷åíèå êýøà àóäèî        : Äà
Èñïîëüçîâàíèå óêàçàòåëåé C2  : Íåò

Êîððåêöèÿ ñìåùåíèÿ ïðè ÷òåíèè                     : 48
Ñïîñîáíîñòü ÷èòàòü îáëàñòè Lead-in è Lead-out     : Íåò
Çàïîëíåíèå ïðîïóùåííûõ ñýìïëîâ òèøèíîé            : Äà
Óäàëåíèå áëîêîâ ñ òèøèíîé â íà÷àëå è êîíöå        : Íåò
Ïðè âû÷èñëåíèÿõ CRC èñïîëüçîâàëèñü íóëåâûå ñýìïëû : Íåò
Èíòåðôåéñ                                         : Óñòàíîâëåííûé âíåøíèé ASPI-èíòåðôåéñ

Âûõîäíîé ôîðìàò          : Ïîëüçîâàòåëüñêèé êîäèðîâùèê
Âûáðàííûé áèòðåéò        : 768 kBit/s
Êà÷åñòâî                 : Âûñîêèé
Äîáàâëåíèå ID3-òýãà      : Íåò
Óòèëèòà ñæàòèÿ           : C:Program FilesExact Audio CopyFLACFLAC.EXE
Äîïîëíèòåëüíûå ïàðàìåòðû : -6 -V -T "ARTIST=%a" -T "TITLE=%t" -T "ALBUM=%g" -T "DATE=%y" -T "TRACKNUMBER=%n" -T "GENRE=%m" -T "COMMENT=%e" %s -o %d


TOC èçâëå÷¸ííîãî CD

     Òðåê |   Ñòàðò  | Äëèòåëüíîñòü | Íà÷àëüíûé ñåêòîð | Êîíå÷íûé ñåêòîð 
    ---------------------------------------------------------------------
       1  |  0:00.00 |    5:13.34   |           0      |      23508      
       2  |  5:13.34 |    2:20.10   |       23509      |      34018      
       3  |  7:33.44 |    3:53.20   |       34019      |      51513      
       4  | 11:26.64 |    2:27.21   |       51514      |      62559      
       5  | 13:54.10 |    3:53.45   |       62560      |      80079      
       6  | 17:47.55 |    2:19.52   |       80080      |      90556      
       7  | 20:07.32 |    2:32.35   |       90557      |     101991      
       8  | 22:39.67 |    2:40.40   |      101992      |     114031      
       9  | 25:20.32 |    2:27.45   |      114032      |     125101      
      10  | 27:48.02 |    2:45.15   |      125102      |     137491      
      11  | 30:33.17 |    3:00.58   |      137492      |     151049      
      12  | 33:34.00 |    2:38.65   |      151050      |     162964      
      13  | 36:12.65 |    2:56.20   |      162965      |     176184      
      14  | 39:09.10 |    2:33.31   |      176185      |     187690      
      15  | 41:42.41 |    3:33.26   |      187691      |     203691      
      16  | 45:15.67 |    2:58.19   |      203692      |     217060      
      17  | 48:14.11 |    3:09.68   |      217061      |     231303      
      18  | 51:24.04 |    4:02.66   |      231304      |     249519      
      19  | 55:26.70 |    2:33.20   |      249520      |     261014      
      20  | 58:00.15 |    4:13.29   |      261015      |     280018      
      21  | 62:13.44 |    3:05.08   |      280019      |     293901      
      22  | 65:18.52 |    3:29.08   |      293902      |     309584      
      23  | 68:47.60 |    2:08.60   |      309585      |     319244      
      24  | 70:56.45 |    3:05.45   |      319245      |     333164      
      25  | 74:02.15 |    2:58.01   |      333165      |     346515      


Õàðàêòåðèñòèêè äèàïàçîíà èçâëå÷åíèÿ è ñîîáùåíèÿ îá îøèáêàõ

Âûáðàííûé äèàïàçîí

     Èìÿ ôàéëà C:Documents and SettingsVarious - The Long Road HomeVarious - The Long Road Home.wav

     Ïèêîâûé óðîâåíü 100.0 %
     Êà÷åñòâî äèàïàçîíà 100.0 %
     CRC òåñòà D0EAA7EF
     CRC êîïèè D0EAA7EF
     Êîïèðîâàíèå... OK

Îøèáîê íå ïðîèçîøëî

 
AccurateRip: ñâîäêà
 
Òðåê  1  òî÷íîñòü íå îïðåäåëåíà (äîñòîâåðíîñòü 5) 44E5AF7D], AccurateRip âåðíóë [84FB7D3D]
Òðåê  3  òî÷íîñòü íå îïðåäåëåíà (äîñòîâåðíîñòü 5) 278CFC27], AccurateRip âåðíóë [4A0D5121]
Òðåê  5  òî÷íîñòü íå îïðåäåëåíà (äîñòîâåðíîñòü 5) C088BA5F], AccurateRip âåðíóë [BF11AFF4]
Òðåê  7  òî÷íîñòü íå îïðåäåëåíà (äîñòîâåðíîñòü 5) F1038CAD], AccurateRip âåðíóë [30661263]
Òðåê  9  òî÷íîñòü íå îïðåäåëåíà (äîñòîâåðíîñòü 5) 1251998F], AccurateRip âåðíóë [27FC61F1]
Òðåê 11  òî÷íîñòü íå îïðåäåëåíà (äîñòîâåðíîñòü 5) 25DB1E35], AccurateRip âåðíóë [28D79DE9]
Òðåê 13  òî÷íîñòü íå îïðåäåëåíà (äîñòîâåðíîñòü 5) 3095F853], AccurateRip âåðíóë [D0DC7ADE]
Òðåê 15  òî÷íîñòü íå îïðåäåëåíà (äîñòîâåðíîñòü 5) C862A704], AccurateRip âåðíóë [CF7F8455]
Òðåê 17  òî÷íîñòü íå îïðåäåëåíà (äîñòîâåðíîñòü 5) D4CA1D0B], AccurateRip âåðíóë [2F2337D1]
Òðåê 19  òî÷íîñòü íå îïðåäåëåíà (äîñòîâåðíîñòü 5) 3E612AD7], AccurateRip âåðíóë [22BF9C18]
Òðåê 21  òî÷íîñòü íå îïðåäåëåíà (äîñòîâåðíîñòü 5) 2CCE95FC], AccurateRip âåðíóë [D1A463DC]
Òðåê 23  òî÷íîñòü íå îïðåäåëåíà (äîñòîâåðíîñòü 5) 9AF6B739], AccurateRip âåðíóë [B66ED73C]
Òðåê 25  òî÷íîñòü íå îïðåäåëåíà (äîñòîâåðíîñòü 4)



Contraseña: ellocoboni





John Fogerty - The Long Road Home (2005)(Flac)(Mg)
10 Puntos Score: 10/10
Visitas: 376 Favoritos: 0
Ver los usuarios que votaron...
4 Comentarios John Fogerty - The Long Road Home (2005)(Flac)(Mg)
Muy buena calidad !
@R0BERTIT0
Gracias por pasar y por los puntos  
Para dejar un comentario Registrate! o.. eres ya usuario? Accede!