Oops.. Este post tiene los enlaces eliminados!

Identi revisa las denuncias de los usuarios en busca de enlaces eliminados que no dejan descargar los archivos, este mensaje te informa que este post que estas viendo tiene los enlaces eliminados.

Usa el Buscador

Por favor, te recomendamos que uses el buscador para encontrar más alternativas.

Nirvana Sliver The Best Of The Box (2005) Ape (Mg)

  • Categoría: Reciclaje
  • Publicado hace más de 3 años






Información:


Formato: Ape (image+.cue) + Log

Covers: En el rar

Año: 2005



Lista de canciones:


01. Spank Thru [1985 Fecal Matter Demo] 03:45

02. Heartbreaker [Live] 02:59

03. Mrs. Butterworth [Rehearsal Demo] 04:04

04. Floyd The Barber [Live] 02:33

05. Clean Up Before She Comes [Home Demo] 03:12

06. About A Girl [Home Demo] 02:44

07. Blandest [Studio Demo] 03:56

08. Ain't It A Shame [Studio Demo] 02:03

09. Sappy [1990 Studio Demo] 03:33

10. Opinion [Solo Acoustic Radio Appearance] 01:35

11. Lithium [Solo Acoustic Radio Appearance] 01:49

12. Sliver [Home Demo] 02:10

13. Smells Like Teen Spirit [Boom Box Version] 05:40

14. Come As You Are [Boom Box Version] 04:10

15. Old Age [Nevermind Outtake] 04:21

16. Oh, The Guilt 03:25

17. Rape Me [Home Demo] 03:23

18. Rape Me [Band Demo] 03:03

19. Heart-Shaped Box [Band Demo] 05:33

20. Do Re Mi [Home Demo] 04:24

21. You Know You're Right [Home Demo] 02:30

22. All Apologies [Home Demo] 03:33





Log:

Exact Audio Copy V0.99 prebeta 5 from 4. May 2009

EAC extraction logfile from 17. November 2009, 4:00

Nirvana / Sliver, The Best Of The Box [Compilation]

Used drive  : SAMSUNG CD-ROM SC-148A   Adapter: 1  ID: 1

Read mode               : Secure
Utilize accurate stream : Yes
Defeat audio cache      : Yes
Make use of C2 pointers : No

Read offset correction                      : 12
Overread into Lead-In and Lead-Out          : Yes
Fill up missing offset samples with silence : Yes
Delete leading and trailing silent blocks   : No
Null samples used in CRC calculations       : Yes
Used interface                              : Native Win32 interface for Win NT & 2000

Used output format : Internal WAV Routines
Sample format      : 44.100 Hz; 16 Bit; Stereo


TOC of the extracted CD

     Track |   Start  |  Length  | Start sector | End sector 
    ---------------------------------------------------------
        1  |  0:00.00 |  3:45.25 |         0    |    16899   
        2  |  3:45.25 |  2:59.12 |     16900    |    30336   
        3  |  6:44.37 |  4:04.65 |     30337    |    48701   
        4  | 10:49.27 |  2:33.03 |     48702    |    60179   
        5  | 13:22.30 |  3:12.45 |     60180    |    74624   
        6  | 16:35.00 |  2:44.55 |     74625    |    86979   
        7  | 19:19.55 |  3:56.50 |     86980    |   104729   
        8  | 23:16.30 |  2:03.00 |    104730    |   113954   
        9  | 25:19.30 |  3:33.30 |    113955    |   129959   
       10  | 28:52.60 |  1:35.07 |    129960    |   137091   
       11  | 30:27.67 |  1:49.38 |    137092    |   145304   
       12  | 32:17.30 |  2:10.27 |    145305    |   155081   
       13  | 34:27.57 |  5:40.63 |    155082    |   180644   
       14  | 40:08.45 |  4:10.57 |    180645    |   199451   
       15  | 44:19.27 |  4:21.10 |    199452    |   219036   
       16  | 48:40.37 |  3:25.48 |    219037    |   234459   
       17  | 52:06.10 |  3:23.17 |    234460    |   249701   
       18  | 55:29.27 |  3:03.23 |    249702    |   263449   
       19  | 58:32.50 |  5:33.00 |    263450    |   288424   
       20  | 64:05.50 |  4:24.52 |    288425    |   308276   
       21  | 68:30.27 |  2:30.43 |    308277    |   319569   
       22  | 71:00.70 |  3:33.30 |    319570    |   335574   


Range status and errors

Selected range

     Filename C:Nirvana - 2005 - Sliver, The Best Of The Box [Compilation]Nirvana - 2005 - Sliver, The Best Of The Box [Compilation].wav

     Peak level 100.0 %
     Range quality 99.9 %
     Test CRC FB61352C
     Copy CRC FB61352C
     Copy OK

No errors occurred

 
AccurateRip summary
 
Track  1  accurately ripped (confidence 61) 40FE60B4]
Track  4  accurately ripped (confidence 60) CBCA896F]
Track  7  accurately ripped (confidence 59) 25BCC996]
Track 10  accurately ripped (confidence 60) E9CAD321]
Track 13  accurately ripped (confidence 59) 1810AC4E]
Track 16  accurately ripped (confidence 60) CAB58C24]
Track 19  accurately ripped (confidence 60) 2D3C4C55]
Track 22  accurately ripped (confidence 58)



Contraseña: ellocoboni





Nirvana - Bleach





Nirvana - Nevermind





Nirvana - Incesticide





Nirvana - In Utero





Nirvana - MTV Unplugged





Nirvana - Compilation








Nirvana Sliver The Best Of The Box (2005) Ape (Mg)
10 Puntos Score: 10/10
Visitas: 503 Favoritos: 0
Ver los usuarios que votaron...
5 Comentarios Nirvana Sliver The Best Of The Box (2005) Ape (Mg)
Excelente   amigo tambien puedes subir el in utero super deluxe edition en este formato
@Crissfer
Gracias por pasar amigo , el cd que me decis no lo tengo.
Muy buena recoplilacion, se agradece
@R0BERTIT0
Gracias por pasar y por los puntos  
Para dejar un comentario Registrate! o.. eres ya usuario? Accede!