Oops.. Este post tiene los enlaces eliminados!

Identi revisa las denuncias de los usuarios en busca de enlaces eliminados que no dejan descargar los archivos, este mensaje te informa que este post que estas viendo tiene los enlaces eliminados.

Usa el Buscador

Por favor, te recomendamos que uses el buscador para encontrar más alternativas.

Keane Night Train (2010) Flac (4s)

  • Categoría: Reciclaje
  • Publicado hace más de 3 años













Información:


Formato: Flac (image+.cue) + Log

Scans: En el rar

Año: 2010



Lista de canciones:


01. House Lights 1:23

02. Back In Time 3:52

03. Stop For A Minute (feat K?naan) 4:06

04. Clear Skies 4:53

05. Ishin Denshin (You?ve Got To Help Yourself) (feat Tigarah) 3:56

06. Your Love 4:36

07. Looking Back (feat K?naan) 3:46

08. My Shadow 4:49 





Log:

Exact Audio Copy V1.0 beta 3 from 29. August 2011

EAC extraction logfile from 3. October 2013, 17:05

Keane / Night Train

Used drive  : HL-DT-STDVDRAM GH22NS50   Adapter: 2  ID: 1

Read mode               : Secure
Utilize accurate stream : Yes
Defeat audio cache      : Yes
Make use of C2 pointers : No

Read offset correction                      : 667
Overread into Lead-In and Lead-Out          : No
Fill up missing offset samples with silence : Yes
Delete leading and trailing silent blocks   : No
Null samples used in CRC calculations       : Yes
Used interface                              : Installed external ASPI interface

Used output format : Internal WAV Routines
Sample format      : 44.100 Hz; 16 Bit; Stereo


TOC of the extracted CD

     Track |   Start  |  Length  | Start sector | End sector 
    ---------------------------------------------------------
        1  |  0:00.00 |  1:23.41 |         0    |     6265   
        2  |  1:23.41 |  3:52.24 |      6266    |    23689   
        3  |  5:15.65 |  4:06.60 |     23690    |    42199   
        4  |  9:22.50 |  4:53.08 |     42200    |    64182   
        5  | 14:15.58 |  3:56.53 |     64183    |    81935   
        6  | 18:12.36 |  4:36.54 |     81936    |   102689   
        7  | 22:49.15 |  3:46.36 |    102690    |   119675   
        8  | 26:35.51 |  4:49.27 |    119676    |   141377   


Range status and errors

Selected range

     Filename D:Keane - Night TrainKeane - Night Train.wav

     Peak level 98.0 %
     Extraction speed 1.8 X
     Range quality 100.0 %
     Test CRC 5A30EBE2
     Copy CRC 5A30EBE2
     Copy OK

No errors occurred

 
AccurateRip summary
 
Track  1  cannot be verified as accurate (confidence 7) 8AA6401C], AccurateRip returned [62B3D875]  (AR v2)
Track  3  cannot be verified as accurate (confidence 8) 704922E1], AccurateRip returned [1995117F]  (AR v2)
Track  5  cannot be verified as accurate (confidence 7) 1AD3F7F5], AccurateRip returned [E1B30C00]  (AR v2)
Track  7  cannot be verified as accurate (confidence 7) 55A7F099], AccurateRip returned [085D06A1]  (AR v2)
 
No tracks could be verified as accurate
You may have a different pressing from the one(s) in the database

End of status report

==== Log checksum 808AF4810DAABD508A62AB020201FC6E39EB28DFB72C3302CB70A870FEF257DC ====








Contraseña: ellocoboni




Keane Night Train (2010) Flac (4s)
0 Puntos Score: 0/10
Visitas: 1058 Favoritos: 0
0 Comentarios Keane Night Train (2010) Flac (4s)
Este post no tiene comentarios. Sea el primero!
Para dejar un comentario Registrate! o.. eres ya usuario? Accede!