Amy Winehouse - Back To Black (2006)(Flac)(Mg)








Información:


Formato: Flac (tracks+.cue) + Log

Covers: En el rar

Año: 2006



Lista de canciones:


01 Rehab

02 You Know I?m No Good

03 Me & Mr. Jones

04 Just Friends

05 Back to Black

06 Love Is a Losing Game

07 Tears Dry on Their Own

08 Wake Up Alone

09 Some Unholy War

10 He Can Only Hold Her





Log:

Exact Audio Copy V1.0 beta 3 from 29. August 2011

EAC extraction logfile from 5. October 2012, 1:05

Amy Winehouse / Back to Black

Used drive  : PLEXTOR DVDR   PX-891SA   Adapter: 0  ID: 4

Read mode               : Secure
Utilize accurate stream : Yes
Defeat audio cache      : Yes
Make use of C2 pointers : No

Read offset correction                      : 6
Overread into Lead-In and Lead-Out          : No
Fill up missing offset samples with silence : Yes
Delete leading and trailing silent blocks   : No
Null samples used in CRC calculations       : Yes
Used interface                              : Native Win32 interface for Win NT & 2000
Gap handling                                : Appended to previous track

Used output format              : User Defined Encoder
Selected bitrate                : 1024 kBit/s
Quality                         : High
Add ID3 tag                     : No
Command line compressor         : C:Program Files (x86)Exact Audio CopyFLACFLAC.EXE
Additional command line options : -0 -V -T "ARTIST=%artist%" -T "TITLE=%title%" -T "ALBUM=%albumtitle%" -T "DATE=%year%" -T "TRACKNUMBER=%tracknr%" -T "TOTALTRACKS=%numtracks%" -T "GENRE=%genre%" -T "COMMENT=Naftamusic Release!" %source%


TOC of the extracted CD

     Track |   Start  |  Length  | Start sector | End sector 
    ---------------------------------------------------------
        1  |  0:01.00 |  3:34.71 |        75    |    16195   
        2  |  3:35.71 |  4:17.14 |     16196    |    35484   
        3  |  7:53.10 |  2:33.13 |     35485    |    46972   
        4  | 10:26.23 |  3:13.23 |     46973    |    61470   
        5  | 13:39.46 |  4:01.22 |     61471    |    79567   
        6  | 17:40.68 |  2:35.31 |     79568    |    91223   
        7  | 20:16.24 |  3:06.33 |     91224    |   105206   
        8  | 23:22.57 |  3:42.00 |    105207    |   121856   
        9  | 27:04.57 |  2:22.52 |    121857    |   132558   
       10  | 29:27.34 |  2:48.44 |    132559    |   145202   


Track  1

     Filename F:Nafta újAmy Winehouse - The album collection (3 CD Box Set2012)[FLAC] - NaftamusicBack to Black (2006)1 - Rehab.wav

     Pre-gap length  0:00:03.00

     Peak level 100.0 %
     Extraction speed 3.4 X
     Track quality 100.0 %
     Test CRC 19F14BC6
     Copy CRC 19F14BC6
     Accurately ripped (confidence 121)
     Copy OK

Track  2

     Filename F:Nafta újAmy Winehouse - The album collection (3 CD Box Set2012)[FLAC] - NaftamusicBack to Black (2006)2 - You Know I'm No Good.wav

     Pre-gap length  0:00:01.14

     Peak level 100.0 %
     Extraction speed 4.0 X
     Track quality 100.0 %
     Test CRC 396DD2A1
     Copy CRC 396DD2A1
     Accurately ripped (confidence 120)
     Copy OK

Track  3

     Filename F:Nafta újAmy Winehouse - The album collection (3 CD Box Set2012)[FLAC] - NaftamusicBack to Black (2006)3 - Me & Mr. Jones.wav

     Pre-gap length  0:00:00.18

     Peak level 100.0 %
     Extraction speed 4.0 X
     Track quality 100.0 %
     Test CRC 560BBAF0
     Copy CRC 560BBAF0
     Accurately ripped (confidence 121)
     Copy OK

Track  4

     Filename F:Nafta újAmy Winehouse - The album collection (3 CD Box Set2012)[FLAC] - NaftamusicBack to Black (2006)4 - Just Friends.wav

     Pre-gap length  0:00:01.45

     Peak level 100.0 %
     Extraction speed 4.4 X
     Track quality 100.0 %
     Test CRC 2DA4C18B
     Copy CRC 2DA4C18B
     Accurately ripped (confidence 120)
     Copy OK

Track  5

     Filename F:Nafta újAmy Winehouse - The album collection (3 CD Box Set2012)[FLAC] - NaftamusicBack to Black (2006)5 - Back to Black.wav

     Pre-gap length  0:00:01.35

     Peak level 100.0 %
     Extraction speed 4.8 X
     Track quality 100.0 %
     Test CRC 94C469BF
     Copy CRC 94C469BF
     Accurately ripped (confidence 120)
     Copy OK

Track  6

     Filename F:Nafta újAmy Winehouse - The album collection (3 CD Box Set2012)[FLAC] - NaftamusicBack to Black (2006)6 - Love Is a Losing Game.wav

     Pre-gap length  0:00:00.64

     Peak level 100.0 %
     Extraction speed 4.7 X
     Track quality 100.0 %
     Test CRC ED3F067E
     Copy CRC ED3F067E
     Accurately ripped (confidence 122)
     Copy OK

Track  7

     Filename F:Nafta újAmy Winehouse - The album collection (3 CD Box Set2012)[FLAC] - NaftamusicBack to Black (2006)7 - Tears Dry on Their Own.wav

     Pre-gap length  0:00:01.19

     Peak level 100.0 %
     Extraction speed 5.1 X
     Track quality 100.0 %
     Test CRC 120D78A3
     Copy CRC 120D78A3
     Accurately ripped (confidence 121)
     Copy OK

Track  8

     Filename F:Nafta újAmy Winehouse - The album collection (3 CD Box Set2012)[FLAC] - NaftamusicBack to Black (2006)8 - Wake Up Alone.wav

     Pre-gap length  0:00:01.19

     Peak level 100.0 %
     Extraction speed 5.4 X
     Track quality 100.0 %
     Test CRC B2F95FA6
     Copy CRC B2F95FA6
     Accurately ripped (confidence 121)
     Copy OK

Track  9

     Filename F:Nafta újAmy Winehouse - The album collection (3 CD Box Set2012)[FLAC] - NaftamusicBack to Black (2006)9 - Some Unholy War.wav

     Pre-gap length  0:00:00.60

     Peak level 100.0 %
     Extraction speed 5.2 X
     Track quality 100.0 %
     Test CRC 5ACC8FDA
     Copy CRC 5ACC8FDA
     Accurately ripped (confidence 121)
     Copy OK

Track 10

     Filename F:Nafta újAmy Winehouse - The album collection (3 CD Box Set2012)[FLAC] - NaftamusicBack to Black (2006)10 - He Can Only Hold Her.wav

     Pre-gap length  0:00:01.32

     Peak level 100.0 %
     Extraction speed 5.5 X
     Track quality 100.0 %
     Test CRC 12E53E9B
     Copy CRC 12E53E9B
     Accurately ripped (confidence 120)
     Copy OK


All tracks accurately ripped

No errors occurred

End of status report

==== Log checksum E9911AC78CBF7397ECAE206C4E429858546F1ACE508C080514EB669EEC166A13 ====







Contraseña: ellocoboni




Amy Winehouse - Back To Black (2006)(Flac)(Mg)
10 Puntos Score: 10/10
Visitas: 1389 Favoritos: 1
Ver los usuarios que votaron...
3 Comentarios Amy Winehouse - Back To Black (2006)(Flac)(Mg)
lastima que se fue  
@elmuer12
Si, era una gran cantante  , pero nos dejo su gran musica, gracias por pasar y por los puntos  , saludos
Muchas gracias!!!!
Para dejar un comentario Registrate! o.. eres ya usuario? Accede!