Oops.. Este post tiene los enlaces eliminados!

Identi revisa las denuncias de los usuarios en busca de enlaces eliminados que no dejan descargar los archivos, este mensaje te informa que este post que estas viendo tiene los enlaces eliminados.

Usa el Buscador

Por favor, te recomendamos que uses el buscador para encontrar más alternativas.

John Fogerty - Deja Vu All Over Again (Flac)(Mg)

  • Categoría: Reciclaje
  • Publicado hace más de 3 años










Información:


Formato: Flac (image+.cue) + Log

Covers: En el rar

Año: 2004



Lista de canciones:


01 - Deja Vu (All Over Again)

02 - Sugar-Sugar (In My Life)

03 - She's Got Baggage

04 - Radar

05 - Honey Do

06 - Nobody's Here Anymore

07 - I Will Walk With You

08 - Rhubarb Pie

09 - Wicked Old Witch

10 - In The Garden





Log:

Exact Audio Copy V0.99 prebeta 4 from 23. January 2008

EAC extraction logfile from 16. November 2008, 23:01

John Fogerty / Deja  Vu All Over Again

Used drive  : TSSTcorpCD/DVDW TS-H552D   Adapter: 3  ID: 0

Read mode               : Secure
Utilize accurate stream : Yes
Defeat audio cache      : Yes
Make use of C2 pointers : No

Read offset correction                      : 6
Overread into Lead-In and Lead-Out          : No
Fill up missing offset samples with silence : Yes
Delete leading and trailing silent blocks   : No
Null samples used in CRC calculations       : Yes
Used interface                              : Installed external ASPI interface

Used output format              : User Defined Encoder
Selected bitrate                : 768 kBit/s
Quality                         : High
Add ID3 tag                     : No
Command line compressor         : C:Program FilesExact Audio CopyFLACFLAC.EXE
Additional command line options : -8 -V -T "ARTIST=%a" -T "TITLE=%t" -T "ALBUM=%g" -T "DATE=%y" -T "TRACKNUMBER=%n" -T "GENRE=%m" -T "COMMENT=%e" %s -o %d


TOC of the extracted CD

     Track |   Start  |  Length  | Start sector | End sector 
    ---------------------------------------------------------
        1  |  0:00.00 |  4:13.37 |         0    |    19011   
        2  |  4:13.37 |  3:30.10 |     19012    |    34771   
        3  |  7:43.47 |  2:35.48 |     34772    |    46444   
        4  | 10:19.20 |  3:07.72 |     46445    |    60541   
        5  | 13:27.17 |  2:51.73 |     60542    |    73439   
        6  | 16:19.15 |  4:03.20 |     73440    |    91684   
        7  | 20:22.35 |  3:02.37 |     91685    |   105371   
        8  | 23:24.72 |  3:17.38 |    105372    |   120184   
        9  | 26:42.35 |  3:26.42 |    120185    |   135676   
       10  | 30:09.02 |  3:51.07 |    135677    |   153008   


Range status and errors

Selected range

     Filename L:TorrentsJohn Fogerty - Deja vu.wav

     Peak level 98.8 %
     Range quality 100.0 %
     Test CRC 68984B1E
     Copy CRC 68984B1E
     Copy OK

No errors occurred

 
AccurateRip summary
 
Track  1  accurately ripped (confidence 40) 228F66F0]
Track  4  accurately ripped (confidence 39) 7C846F53]
Track  7  accurately ripped (confidence 39) CB04B43C]
Track 10  accurately ripped (confidence 38)




Contraseña: ellocoboni





John Fogerty - Deja Vu All Over Again (Flac)(Mg)
10 Puntos Score: 10/10
Visitas: 762 Favoritos: 1
Ver los usuarios que votaron...
6 Comentarios John Fogerty - Deja Vu All Over Again (Flac)(Mg)
GRACIAS CAMPEON !!!  
@TroyMcClue
Gracias por pasar amigo  
Gracias Amigo, ...
Gracias por compartir
@R0BERTIT0
Gracias por pasar y por los puntos  
Para dejar un comentario Registrate! o.. eres ya usuario? Accede!