Metal Evolution Pre Metal Sub Mp4 Ligero (4S)





Metal Evolution es una serie documental 2011 dirigido por el antropólogo y cineasta Sam Dunn y director, productor y supervisor musical Scot McFadyen sobre subgéneros del heavy metal, con nuevos episodios al aire todos los viernes a las 10 pm EST en MuchMore y sábados a las 22:00 EST en VH1 Classic. Sus orígenes provienen de metal primer documental de Dunn: ". Metal: A Headbanger's Journey" , que incluye el aclamado "Heavy Metal Family Tree."
"Pre Metal"
Rastreando los orígenes de metal es una odisea fantasmagórica que atraviesa ciudades y países, océanos y continentes. Para Sam Dunn, stop # 1 en esta peregrinación de heavy metal es el lugar de nacimiento del progenitor indiscutible Metal: el rock 'n' roll.

Disfruten este humilde rip mio aquí algunas capturas














General


Format                           : MPEG-4

Format profile                   : Base Media / Version 2

Codec ID                         : mp42

File size                        : 357 MiB

Duration                         : 43mn 50s

Overall bit rate                 : 1 139 Kbps

Writing application              : mp4creator 1.6.1d


Video

ID                               : 1

Format                           : AVC

Format/Info                      : Advanced Video Codec

Format profile                   : [email protected]

Format settings, CABAC           : No

Format settings, ReFrames        : 1 frame

Codec ID                         : avc1

Codec ID/Info                    : Advanced Video Coding

Duration                         : 43mn 50s

Bit rate mode                    : Variable

Bit rate                         : 1 018 Kbps

Width                            : 1 280 pixels

Height                           : 720 pixels

Display aspect ratio             : 16:9

Frame rate mode                  : Variable

Frame rate                       : 23.976 fps

Minimum frame rate               : 23.974 fps

Maximum frame rate               : 23.981 fps

Color space                      : YUV

Chroma subsampling               : 4:2:0

Bit depth                        : 8 bits

Scan type                        : Progressive

Bits/(Pixel*Frame)               : 0.046

Stream size                      : 319 MiB (89%)


Audio

ID                               : 2

Format                           : AAC

Format/Info                      : Advanced Audio Codec

Format profile                   : LC

Codec ID                         : 40

Duration                         : 43mn 48s

Bit rate mode                    : Variable

Bit rate                         : 118 Kbps

Maximum bit rate                 : 147 Kbps

Channel(s)                       : 2 channels

Channel positions                : Front: L R

Sampling rate                    : 44.1 KHz

Compression mode                 : Lossy

Stream size                      : 37.0 MiB (10%)






http://www.4shared.com/rar/1tqOqMuU/MetalEvopart1.html
http://www.4shared.com/rar/aGmQubvF/metalEvopart2.html
http://www.4shared.com/rar/ms9nG9DI/MetalEvopart3.html





Metal Evolution Pre Metal Sub Mp4 Ligero (4S)
40 Puntos Score: 10/10
Visitas: 968 Favoritos: 4
Ver los usuarios que votaron...
4 Comentarios Metal Evolution Pre Metal Sub Mp4 Ligero (4S)
Cuantos son?
Los tienes todos?
Los subir?
@Akuma
Cita Akuma: Mostrar
felices fiestas  
Para dejar un comentario Registrate! o.. eres ya usuario? Accede!