AC/DC Family Jewels 3 Mg








01. Big Gun
02. Hard As A Rock
03. Hail Caesar
04. Cover You In Oil
05. Stiff Upper Lip
06. Satellite Blues
07. Safe In New York City
08. Rock N Roll Train
09. Anything Goes

BONUS VIDEOS:
10. Jailbreak
11. It?s A Long Way To The Top (If You Wanna Rock ?N? Roll)
12. Highway To Hell
13. You Shook Me All Night Long
14. Guns For Hire
15. Dirty Deeds Done Dirt Cheap (live)
16. Highway To Hell (live)

BONUS FEATURES:
17. The Making Of Hard As A Rock
18. The Making Of Rock N Roll Train

             
Format                           : Matroska
File size                        : 1.04 GiB
Duration                         : 1h 28mn
Overall bit rate                 : 1 684 Kbps          
Writing application              : AVSMatroskaFile
Writing library                  : libebml v0.7.7 + libmatroska v0.8.1

Video
ID                               : 1
Format                           : AVC
Format/Info                      : Advanced Video Codec
Format profile                   : [email protected]
Format settings, CABAC           : Yes
Format settings, ReFrames        : 1 frame
Codec ID                         : V_MPEG4/ISO/AVC
Duration                         : 1h 28mn
Bit rate                         : 1 459 Kbps
Width                            : 720 pixels
Height                           : 480 pixels
Display aspect ratio             : 3:2
Frame rate                       : 29.970 fps
Standard                         : NTSC
Color space                      : YUV
Chroma subsampling               : 4:2:0
Bit depth                        : 8 bits
Scan type                        : Progressive
Bits/(Pixel*Frame)               : 0.141
Stream size                      : 922 MiB (87%)

Audio
ID                               : 2
Format                           : MPEG Audio
Format version                   : Version 1
Format profile                   : Layer 3
Codec ID                         : A_MPEG/L3
Codec ID/Hint                    : MP3
Duration                         : 1h 28mn
Bit rate mode                    : Constant
Bit rate                         : 192 Kbps
Channel(s)                       : 2 channels
Sampling rate                    : 44.1 KHz
Compression mode                 : Lossy
Stream size                      : 121 MiB (11%)














AC/DC Family Jewels 3 Mg
10 Puntos Score: 10/10
Visitas: 1373 Favoritos: 3
Ver los usuarios que votaron...
3 Comentarios AC/DC Family Jewels 3 Mg
amigo link caido, puedes volver a subirlo porfa, buen aporte.. saludos
vuelve a subirlos  por fa ,llege tarde   es un buen aporte broo !
podrias resubirlo estoy desesperado no lo consigo
Para dejar un comentario Registrate! o.. eres ya usuario? Accede!