The Doors - L.A. Woman (1971)(Flac)(Mg)








Información:


Formato: Flac (image+.cue) + Log

Covers: En el rar

Año: 1971 (remasterizado en 2006)



Lista de canciones:


01. The Changeling

02. Love Her Madly

03. Been Down So Long

04. Cars Hiss By My Window

05. L.A. Woman

06. L'America

07. Hyacinth House

08. Crawlin' King Snake 

09. The WASP 

10. Riders on the Storm

11. Orange County Suite

12. (You Need Meat) Don't Go No Further





Log:

Exact Audio Copy V0.99 prebeta 3 from 28. July 2007

EAC extraction logfile from 30. September 2010, 13:35

The Doors / Perception Boxset 2006 (Disc 6 - L.A. Woman)

Used drive  : Optiarc DVD RW AD-7173S   Adapter: 3  ID: 0

Read mode               : Secure
Utilize accurate stream : Yes
Defeat audio cache      : Yes
Make use of C2 pointers : No

Read offset correction                      : 48
Overread into Lead-In and Lead-Out          : No
Fill up missing offset samples with silence : Yes
Delete leading and trailing silent blocks   : No
Null samples used in CRC calculations       : Yes
Used interface                              : Native Win32 interface for Win NT & 2000

Used output format : Internal WAV Routines
Sample format      : 44.100 Hz; 16 Bit; Stereo


TOC of the extracted CD

     Track |   Start  |  Length  | Start sector | End sector 
    ---------------------------------------------------------
        1  |  0:00.00 |  4:21.54 |         0    |    19628   
        2  |  4:21.54 |  3:20.68 |     19629    |    34696   
        3  |  7:42.47 |  4:41.13 |     34697    |    55784   
        4  | 12:23.60 |  4:12.11 |     55785    |    74695   
        5  | 16:35.71 |  7:53.05 |     74696    |   110175   
        6  | 24:29.01 |  4:38.25 |    110176    |   131050   
        7  | 29:07.26 |  3:11.73 |    131051    |   145448   
        8  | 32:19.24 |  5:00.63 |    145449    |   168011   
        9  | 37:20.12 |  4:15.52 |    168012    |   187188   
       10  | 41:35.64 |  7:16.54 |    187189    |   219942   
       11  | 48:52.43 |  5:45.29 |    219943    |   245846   
       12  | 54:37.72 |  3:41.71 |    245847    |   262492   


Range status and errors

Selected range

     Filename W:CDThe Doors (Perception Boxset CD6 - L.A. Woman 1971) 2006The Doors - Perception Boxset 2006 (Disc 6 - L.A. Woman).wav

     Peak level 98.9 %
     Range quality 100.0 %
     Test CRC 4F9285DF
     Copy CRC 4F9285DF
     Copy OK

No errors occurred

 
AccurateRip summary
 
Track  1  accurately ripped (confidence 35) E28DBC5F]
Track  4  accurately ripped (confidence 36) 23F69A4F]
Track  7  accurately ripped (confidence 36) EE8EB980]
Track 10  accurately ripped (confidence 36) 7E99CF57]
 
All tracks accurately ripped

End of status report





Contraseña: ellocoboni




The Doors - L.A. Woman (1971)(Flac)(Mg)
40 Puntos Score: 10/10
Visitas: 898 Favoritos: 2
Ver los usuarios que votaron...
10 Comentarios The Doors - L.A. Woman (1971)(Flac)(Mg)
Excelente !!  Gracias por tu subida
@R0BERTIT0
Gracias por los puntos amigo y que disfrutes los cd?
excelente aporte amigo ojala pudieras subir la pelicula  en audio latino
deje 10 por que es un discaso y tiene dos temas que no estan en el historico
@biggordo
Gracias por pasar   amigo, la pelicula no la tengo

 @ArqPittau
Si es un muy buen disco, gracias por los puntos  
Impresionante calidad de m?
@uzioso
Gracias por pasar amigo, saludos
hello dear!
Greetings to you, My name is Robert Cone overall, I'm a GENERAL U.S. ARMY, I hope this post is well and healthy and I hope we can establish a relationship since we met for the first time, I have gone through a profile that speaks well of you on this site and I saw your profile and decided to reach you. It is my desire to meet you, I like honesty, trust, love, caring, truth and respect, I have all these qualities in me, kindly respond to me through my private email box (generalrobert50 @ hotmail . com) so we can know each other better. Hope to read from you if you are also interested. Thanks, waiting to hear from you soonest. EMAIL: ([email protected])
excelente aporte  
Para dejar un comentario Registrate! o.. eres ya usuario? Accede!