Oops.. Este post tiene los enlaces eliminados!

Identi revisa las denuncias de los usuarios en busca de enlaces eliminados que no dejan descargar los archivos, este mensaje te informa que este post que estas viendo tiene los enlaces eliminados.

Usa el Buscador

Por favor, te recomendamos que uses el buscador para encontrar más alternativas.

Nirvana Compilation (2002) Ape (Mg)

  • Categoría: Reciclaje
  • Publicado hace más de 3 años












Información:


Formato: Ape (image+.cue) + Log

Covers: En el rar

Año: 2002 (remasterizado en 2008) 



Lista de canciones:


01. You Know You're Right 03:38

02. About A Girl 02:49

03. Been A Son 02:23

04. Sliver 02:14

05. Smells Like Teen Spirit 05:01

06. Come As You Are 03:39

07. Lithium 04:17

08. In Bloom 04:15

09. Heart-Shaped Box 04:41

10. Pennyroyal Tea [Single Mix] 03:38

11. Rape Me 02:51

12. Dumb 02:34

13. All Apologies [Live] [MTV Unplugged] 03:47

14. The Man Who Sold The World [Live] [MTV Unplugged] 03:49

15. Something In The Way [Live] [MTV Unplugged] 03:32

16. Where Did You Sleep Last Night [Live] [MTV Unplugged] 05:02





Log:

Exact Audio Copy V0.99 prebeta 5 from 4. May 2009

EAC extraction logfile from 13. September 2009, 18:05

Nirvana / Nirvana [Compilation]

Used drive  : SAMSUNG CD-ROM SC-148A   Adapter: 1  ID: 1

Read mode               : Secure
Utilize accurate stream : Yes
Defeat audio cache      : Yes
Make use of C2 pointers : No

Read offset correction                      : 12
Overread into Lead-In and Lead-Out          : Yes
Fill up missing offset samples with silence : Yes
Delete leading and trailing silent blocks   : No
Null samples used in CRC calculations       : Yes
Used interface                              : Native Win32 interface for Win NT & 2000

Used output format : Internal WAV Routines
Sample format      : 44.100 Hz; 16 Bit; Stereo


TOC of the extracted CD

     Track |   Start  |  Length  | Start sector | End sector 
    ---------------------------------------------------------
        1  |  0:00.00 |  3:38.02 |         0    |    16351   
        2  |  3:38.02 |  2:49.13 |     16352    |    29039   
        3  |  6:27.15 |  2:23.57 |     29040    |    39821   
        4  |  8:50.72 |  2:14.18 |     39822    |    49889   
        5  | 11:05.15 |  5:01.25 |     49890    |    72489   
        6  | 16:06.40 |  3:39.02 |     72490    |    88916   
        7  | 19:45.42 |  4:17.10 |     88917    |   108201   
        8  | 24:02.52 |  4:15.00 |    108202    |   127326   
        9  | 28:17.52 |  4:41.63 |    127327    |   148464   
       10  | 32:59.40 |  3:38.20 |    148465    |   164834   
       11  | 36:37.60 |  2:51.27 |    164835    |   177686   
       12  | 39:29.12 |  2:34.30 |    177687    |   189266   
       13  | 42:03.42 |  3:47.70 |    189267    |   206361   
       14  | 45:51.37 |  3:49.70 |    206362    |   223606   
       15  | 49:41.32 |  3:32.38 |    223607    |   239544   
       16  | 53:13.70 |  5:02.37 |    239545    |   262231   


Range status and errors

Selected range

     Filename C:Nirvana - 2002 - Nirvana [Compilation]Nirvana - 2002 - Nirvana [Compilation].wav

     Peak level 100.0 %
     Range quality 99.9 %
     Test CRC A6C22642
     Copy CRC A6C22642
     Copy OK

No errors occurred

 
AccurateRip summary
 
Track  1  cannot be verified as accurate (confidence 2) B448F477], AccurateRip returned [F1F1D821]
Track  3  cannot be verified as accurate (confidence 2) 01B30E81], AccurateRip returned [F93CB4A1]
Track  5  cannot be verified as accurate (confidence 2) 77D656C2], AccurateRip returned [3943DCE4]
Track  7  cannot be verified as accurate (confidence 2) F8C167E6], AccurateRip returned [75AA3F2E]
Track  9  cannot be verified as accurate (confidence 2) E14B286E], AccurateRip returned [0111359E]
Track 11  cannot be verified as accurate (confidence 2) 06586B7E], AccurateRip returned [0A1CD4BE]
Track 13  cannot be verified as accurate (confidence 2) 1322266C], AccurateRip returned [986F9EFC]
Track 16  cannot be verified as accurate (confidence 2)





Nirvana Compilation (2002) Ape (Mg)
20 Puntos Score: 10/10
Visitas: 719 Favoritos: 3
Ver los usuarios que votaron...
10 Comentarios Nirvana Compilation (2002) Ape (Mg)
Excelente, + 10
@lobazo79
Gracias por los puntos amigo  
@ellocoboni Dime amigo una pregunta, ?
@lobazo79
No los comprimi asi, ya me fijo que pasa con el rar, si no ma?
@ellocoboni Ya lo arregle, un amigo me ayudo, solo tenia que poner "extraer en" y luego marcar la opcion "conservar ficheros da?
@lobazo79
Ok, igual el rar estaba bien porque reci?
@ellocoboni Gracias Amigo, que buena calidad de audio, deberias formar una comunidad Vorbis Flac, te felicito por tus aportes.
@BackTrax
Gracias amigo por pasar
@he_roe
Gracias por pasar y por los puntos  
Para dejar un comentario Registrate! o.. eres ya usuario? Accede!