Oops.. Este post tiene los enlaces eliminados!

Identi revisa las denuncias de los usuarios en busca de enlaces eliminados que no dejan descargar los archivos, este mensaje te informa que este post que estas viendo tiene los enlaces eliminados.

Usa el Buscador

Por favor, te recomendamos que uses el buscador para encontrar más alternativas.

Keane Perfect Symmetry (2008) Flac (4s)

  • Categoría: Reciclaje
  • Publicado hace más de 3 años













Información:


Formato: Flac (image+.cue) + Log

Scans: En el rar

Año: 2008



Lista de canciones:


01. Spiralling 

02. The Lovers Are Losing 

03. Better Than This 

04. You Haven't Told Me Anything 

05. Perfect Symmetry 

06. You Don't See Me 

07. Again And Again 

08. Playing Along 

09. Pretend That You're Alone 

10. Black Burning Heart 

11. Love Is The End





Log:

Exact Audio Copy V1.0 beta 3 from 29. August 2011

EAC extraction logfile from 3. October 2013, 16:21

Keane / Perfect Symmetry

Used drive  : HL-DT-STDVDRAM GH22NS50   Adapter: 2  ID: 1

Read mode               : Secure
Utilize accurate stream : Yes
Defeat audio cache      : Yes
Make use of C2 pointers : No

Read offset correction                      : 667
Overread into Lead-In and Lead-Out          : No
Fill up missing offset samples with silence : Yes
Delete leading and trailing silent blocks   : No
Null samples used in CRC calculations       : Yes
Used interface                              : Installed external ASPI interface

Used output format : Internal WAV Routines
Sample format      : 44.100 Hz; 16 Bit; Stereo


TOC of the extracted CD

     Track |   Start  |  Length  | Start sector | End sector 
    ---------------------------------------------------------
        1  |  0:00.00 |  4:19.32 |         0    |    19456   
        2  |  4:19.32 |  5:04.33 |     19457    |    42289   
        3  |  9:23.65 |  4:03.62 |     42290    |    60576   
        4  | 13:27.52 |  3:47.18 |     60577    |    77619   
        5  | 17:14.70 |  5:12.07 |     77620    |   101026   
        6  | 22:27.02 |  4:03.05 |    101027    |   119256   
        7  | 26:30.07 |  3:50.08 |    119257    |   136514   
        8  | 30:20.15 |  5:35.25 |    136515    |   161664   
        9  | 35:55.40 |  3:47.27 |    161665    |   178716   
       10  | 39:42.67 |  5:23.28 |    178717    |   202969   
       11  | 45:06.20 |  5:37.42 |    202970    |   228286   


Range status and errors

Selected range

     Filename D:Keane - Perfect SymmetryKeane - Perfect Symmetry.wav

     Peak level 99.8 %
     Extraction speed 2.0 X
     Range quality 100.0 %
     Test CRC 36A9562D
     Copy CRC 36A9562D
     Copy OK

No errors occurred

 
AccurateRip summary
 
Track  1  accurately ripped (confidence 4) 3F659F8B]  (AR v2)
Track  4  accurately ripped (confidence 4) B7B94FAE]  (AR v2)
Track  7  accurately ripped (confidence 4) E6978A19]  (AR v2)
Track 10  accurately ripped (confidence 4)



Contraseña: ellocoboni




Keane Perfect Symmetry (2008) Flac (4s)
20 Puntos Score: 10/10
Visitas: 393 Favoritos: 0
Ver los usuarios que votaron...
2 Comentarios Keane Perfect Symmetry (2008) Flac (4s)
@R0BERTIT0
Gracias por pasar y por los puntos  
Para dejar un comentario Registrate! o.. eres ya usuario? Accede!