Oops.. Este post tiene los enlaces eliminados!

Identi revisa las denuncias de los usuarios en busca de enlaces eliminados que no dejan descargar los archivos, este mensaje te informa que este post que estas viendo tiene los enlaces eliminados.

Usa el Buscador

Por favor, te recomendamos que uses el buscador para encontrar más alternativas.

Amy Winehouse Frank (2003) Flac (Mg)

  • Categoría: Reciclaje
  • Publicado hace más de 3 años












Información:


Formato: Flac (tracks+.cue) + Log

Covers: En el rar

Año: 2003



Lista de canciones:


01 Intro, Stronger Than Me

02You Sent Me Flying, Cherry

03 Fuck Me Pumps

04 I Heard Love Is Blind

05 (There Is) No Greater Love

06 In My Bed

07 Take The Box

08 October Song

09 What Is It About Men

10 Help Yourself

11 Amy Amy Amy, Outro





Log:

Exact Audio Copy V1.0 beta 3 from 29. August 2011

EAC extraction logfile from 5. October 2012, 0:07

Amy Winehouse / Frank

Used drive  : PLEXTOR DVDR   PX-891SA   Adapter: 0  ID: 4

Read mode               : Secure
Utilize accurate stream : Yes
Defeat audio cache      : Yes
Make use of C2 pointers : No

Read offset correction                      : 6
Overread into Lead-In and Lead-Out          : No
Fill up missing offset samples with silence : Yes
Delete leading and trailing silent blocks   : No
Null samples used in CRC calculations       : Yes
Used interface                              : Native Win32 interface for Win NT & 2000
Gap handling                                : Appended to previous track

Used output format              : User Defined Encoder
Selected bitrate                : 1024 kBit/s
Quality                         : High
Add ID3 tag                     : No
Command line compressor         : C:Program Files (x86)Exact Audio CopyFLACFLAC.EXE
Additional command line options : -0 -V -T "ARTIST=%artist%" -T "TITLE=%title%" -T "ALBUM=%albumtitle%" -T "DATE=%year%" -T "TRACKNUMBER=%tracknr%" -T "TOTALTRACKS=%numtracks%" -T "GENRE=%genre%" -T "COMMENT=Naftamusic Release!" %source%


TOC of the extracted CD

     Track |   Start  |  Length  | Start sector | End sector 
    ---------------------------------------------------------
        1  |  0:00.00 |  3:54.39 |         0    |    17588   
        2  |  3:54.39 |  6:50.54 |     17589    |    48392   
        3  | 10:45.18 |  3:20.19 |     48393    |    63411   
        4  | 14:05.37 |  2:10.33 |     63412    |    73194   
        5  | 16:15.70 |  2:47.70 |     73195    |    85789   
        6  | 19:03.65 |  5:17.00 |     85790    |   109564   
        7  | 24:20.65 |  3:20.15 |    109565    |   124579   
        8  | 27:41.05 |  3:24.65 |    124580    |   139944   
        9  | 31:05.70 |  3:29.43 |    139945    |   155662   
       10  | 34:35.38 |  5:01.05 |    155663    |   178242   
       11  | 39:36.43 | 11:03.32 |    178243    |   227999   


Track  1

     Filename F:Nafta újAmy Winehouse - The album collection (3 CD Box Set2012)[FLAC] - NaftamusicFrank (2003)1 - Intro,Stronger Than Me.wav

     Pre-gap length  0:00:02.00

     Peak level 99.9 %
     Extraction speed 3.6 X
     Track quality 100.0 %
     Test CRC 42D70792
     Copy CRC 42D70792
     Accurately ripped (confidence 77) 80FC9A15]  (AR v2)
     Copy OK

Track  3

     Filename F:Nafta újAmy Winehouse - The album collection (3 CD Box Set2012)[FLAC] - NaftamusicFrank (2003)3 - Fuck Me Pumps.wav

     Pre-gap length  0:00:00.61

     Peak level 99.8 %
     Extraction speed 4.4 X
     Track quality 100.0 %
     Test CRC 485E4AB0
     Copy CRC 485E4AB0
     Accurately ripped (confidence 77) ED638AD5]  (AR v2)
     Copy OK

Track  5

     Filename F:Nafta újAmy Winehouse - The album collection (3 CD Box Set2012)[FLAC] - NaftamusicFrank (2003)5 - (There Is) No Greater Love.wav

     Pre-gap length  0:00:00.58

     Peak level 99.8 %
     Extraction speed 4.7 X
     Track quality 100.0 %
     Test CRC 6F08C3B5
     Copy CRC 6F08C3B5
     Accurately ripped (confidence 75) 93D7DE38]  (AR v2)
     Copy OK

Track  7

     Filename F:Nafta újAmy Winehouse - The album collection (3 CD Box Set2012)[FLAC] - NaftamusicFrank (2003)7 - Take The Box.wav

     Pre-gap length  0:00:01.03

     Peak level 99.8 %
     Extraction speed 4.2 X
     Track quality 99.9 %
     Test CRC 05C98D05
     Copy CRC 05C98D05
     Accurately ripped (confidence 77) 61A6056C]  (AR v2)
     Copy OK

Track  9

     Filename F:Nafta újAmy Winehouse - The album collection (3 CD Box Set2012)[FLAC] - NaftamusicFrank (2003)9 - What Is It About Men.wav

     Peak level 99.8 %
     Extraction speed 5.9 X
     Track quality 100.0 %
     Test CRC 902BE1DD
     Copy CRC 902BE1DD
     Accurately ripped (confidence 76) 46DE68CF]  (AR v2)
     Copy OK

Track 11

     Filename F:Nafta újAmy Winehouse - The album collection (3 CD Box Set2012)[FLAC] - NaftamusicFrank (2003)11 - Amy Amy Amy,Outro.wav

     Peak level 99.8 %
     Extraction speed 7.3 X
     Track quality 100.0 %
     Test CRC 5568C514
     Copy CRC 5568C514
     Accurately ripped (confidence 76)



Contraseña: ellocoboni




Amy Winehouse Frank (2003) Flac (Mg)
0 Puntos Score: 0/10
Visitas: 516 Favoritos: 0
2 Comentarios Amy Winehouse Frank (2003) Flac (Mg)
Links Muertos  
Para dejar un comentario Registrate! o.. eres ya usuario? Accede!