Oops.. Este post tiene los enlaces eliminados!

Identi revisa las denuncias de los usuarios en busca de enlaces eliminados que no dejan descargar los archivos, este mensaje te informa que este post que estas viendo tiene los enlaces eliminados.

Usa el Buscador

Por favor, te recomendamos que uses el buscador para encontrar más alternativas.

Guns N' Roses The Spaghetti Incident Ape (Mg)

  • Categoría: Reciclaje
  • Publicado hace más de 4 años










Información:


Formato: Ape (image+.cue) + Log

Covers: En el rar

Año: 1993 (remasterido en 2008)



Lista de canciones:


01. Since I Don't Have You 04:19

02. New Rose 02:38


03. Down On The Farm 03:28


04. Human Being 06:48


05. Raw Power 03:11


06. Ain't It Fun 05:05


07. Buick Makane (Big Dumb Sex) 02:39


08. Hair Of The Dog 03:54


09. Attitude 01:27


10. Black Leather 04:08


11. You Can't Put Your Arms Around A Memory 03:35


12. I Don't Care About You + Look At Your Game, Girl 04:53





Log:

Exact Audio Copy V0.99 prebeta 5 from 4. May 2009

EAC extraction logfile from 20. September 2009, 0:49

Guns N' Roses / The Spaghetti Incident

Used drive  : SAMSUNG CD-ROM SC-148A   Adapter: 1  ID: 1

Read mode               : Secure
Utilize accurate stream : Yes
Defeat audio cache      : Yes
Make use of C2 pointers : No

Read offset correction                      : 12
Overread into Lead-In and Lead-Out          : Yes
Fill up missing offset samples with silence : Yes
Delete leading and trailing silent blocks   : No
Null samples used in CRC calculations       : Yes
Used interface                              : Native Win32 interface for Win NT & 2000

Used output format : Internal WAV Routines
Sample format      : 44.100 Hz; 16 Bit; Stereo


TOC of the extracted CD

     Track |   Start  |  Length  | Start sector | End sector 
    ---------------------------------------------------------
        1  |  0:00.37 |  4:19.53 |        37    |    19514   
        2  |  4:20.15 |  2:38.25 |     19515    |    31389   
        3  |  6:58.40 |  3:28.45 |     31390    |    47034   
        4  | 10:27.10 |  6:48.17 |     47035    |    77651   
        5  | 17:15.27 |  3:11.68 |     77652    |    92044   
        6  | 20:27.20 |  5:05.60 |     92045    |   114979   
        7  | 25:33.05 |  2:39.57 |    114980    |   126961   
        8  | 28:12.62 |  3:54.70 |    126962    |   144581   
        9  | 32:07.57 |  1:27.00 |    144582    |   151106   
       10  | 33:34.57 |  4:08.40 |    151107    |   169746   
       11  | 37:43.22 |  3:35.05 |    169747    |   185876   
       12  | 41:18.27 |  4:53.23 |    185877    |   207874   


Range status and errors

Selected range

     Filename C:Guns N' Roses - 1993 - The Spaghetti IncidentGuns N' Roses - 1993 - The Spaghetti Incident.wav

     Peak level 100.0 %
     Range quality 99.9 %
     Test CRC D9F8239D
     Copy CRC D9F8239D
     Copy OK

No errors occurred

 
AccurateRip summary
 
Track  1  not present in database
Track  2  not present in database
Track  3  not present in database
Track  4  not present in database
Track  5  not present in database
Track  6  not present in database
Track  7  not present in database
Track  8  not present in database
Track  9  not present in database
Track 10  not present in database
Track 11  not present in database
Track 12  not present in database
 
None of the tracks are present in the AccurateRip database

End of status report







descargar peliculas - descargar programas
2 Puntos Score: 2/10
Visitas: 931 Favoritos: 1
Ver los usuarios que votaron...
6 Comentarios Guns N' Roses The Spaghetti Incident Ape (Mg)
Gracias por el aporte.
@karzon
Gracias por pasar amigo  
ellocoboni, Muchas gracias amigo, mis respetos por tus post!!!. Me gusta la Hi-Fi.
Soy nuevo aca, te debo los merecidos puntos, pero esto no me da shampoo de asignartelos.
Suave.
BackTrax.....
@BackTrax
Ja ja gracias amigo  , saludos
@linkmaker
Gracias por pasar y por los puntos  
Para dejar un comentario Registrate! o.. eres ya usuario? Accede!
Facebook Identi