John Fogerty - Blue Moon Swamp (1997)(Flac)(Mg)











Información:


Formato: Flac (image+.cue) + Log

Covers: En el rar

Año: 1997



Lista de canciones:


01 - Southern Streamline

02 - Hot Rod Heart

03 - Blueboy

04 - A Hundred and Ten in the Shade

05 - Rattlesnake Highway

06 - Bring It Down To Jelly Roll

07 - Walking in a Hurricane

08 - Swamp River Days

09 - Rambunctious Boy

10 - Joy of My Life

11 - Blue Moon Nights

12 - Bad Bad Boy





Log:

Exact Audio Copy V0.99 prebeta 3 from 28. July 2007

EAC extraction logfile from 1. December 2007, 2:51

John Fogerty / Blue Moon Swamp

Used drive  : SAMSUNG CDRW/DVD SM-352F   Adapter: 0  ID: 0

Read mode               : Secure
Utilize accurate stream : Yes
Defeat audio cache      : Yes
Make use of C2 pointers : No

Read offset correction                      : 6
Overread into Lead-In and Lead-Out          : No
Fill up missing offset samples with silence : Yes
Delete leading and trailing silent blocks   : No
Null samples used in CRC calculations       : Yes
Used interface                              : Installed external ASPI interface

Used output format              : User Defined Encoder
Selected bitrate                : 192 kBit/s
Quality                         : High
Add ID3 tag                     : No
Command line compressor         : C:Program FilesExact Audio CopyFLACFLAC.EXE
Additional command line options : -8 -A tukey(0.25) -A gauss(0.1875) -b 4096 -V -T "artist=%a" -T "title=%t" -T "album=%g" -T "date=%y" -T "tracknumber=%n" -T "genre=%m" %s --sector-align


TOC of the extracted CD

     Track |   Start  |  Length  | Start sector | End sector 
    ---------------------------------------------------------
        1  |  0:00.00 |  3:56.15 |         0    |    17714   
        2  |  3:56.15 |  3:26.32 |     17715    |    33196   
        3  |  7:22.47 |  4:04.05 |     33197    |    51501   
        4  | 11:26.52 |  4:19.00 |     51502    |    70926   
        5  | 15:45.52 |  4:17.02 |     70927    |    90203   
        6  | 20:02.54 |  2:37.33 |     90204    |   102011   
        7  | 22:40.12 |  3:41.25 |    102012    |   118611   
        8  | 26:21.37 |  3:36.63 |    118612    |   134874   
        9  | 29:58.25 |  3:51.70 |    134875    |   152269   
       10  | 33:50.20 |  3:52.00 |    152270    |   169669   
       11  | 37:42.20 |  2:33.02 |    169670    |   181146   
       12  | 40:15.22 |  4:26.70 |    181147    |   201166   


Range status and errors

Selected range

     Filename C:Documents and SettingsEllenDesktopJohn FogertyJohn Fogerty - Blue Moon Swamp.wav

     Peak level 100.0 %
     Range quality 100.0 %
     Test CRC DD34200B
     Copy CRC DD34200B
     Copy OK

No errors occurred

 
AccurateRip summary
 
Track  1  accurately ripped (confidence 32) 5033814E]
Track  4  accurately ripped (confidence 33) FB76A532]
Track  7  accurately ripped (confidence 33) 36BED7EF]
Track 10  accurately ripped (confidence 33) 5B7F8110]
 
All tracks accurately ripped

End of status report







Contraseña: ellocoboni





John Fogerty - Blue Moon Swamp (1997)(Flac)(Mg)
10 Puntos Score: 10/10
Visitas: 377 Favoritos: 0
Ver los usuarios que votaron...
4 Comentarios John Fogerty - Blue Moon Swamp (1997)(Flac)(Mg)
Gran Post, Excelente Calidad De Audio. Gracias.
@BackTrax
Gracias por pasar  amigo
Excelente, Gracias Un saludo
@R0BERTIT0
Gracias por pasar y por los puntos  
Para dejar un comentario Registrate! o.. eres ya usuario? Accede!