Oops.. Este post tiene los enlaces eliminados!

Identi revisa las denuncias de los usuarios en busca de enlaces eliminados que no dejan descargar los archivos, este mensaje te informa que este post que estas viendo tiene los enlaces eliminados.

Usa el Buscador

Por favor, te recomendamos que uses el buscador para encontrar más alternativas.

Keane Under The Iron Sea (2006) Flac (4s)

  • Categoría: Reciclaje
  • Publicado hace más de 3 años











Información:


Formato: Flac (image+.cue) + Log

Covers: En el rar

Año: 2006



Lista de canciones:


01. Atlantic

02. Is it any wonder?

03. Nothing in my way

04. Leaving so soon

05. A bad dream

06. Hamburg song

07. Put it behind you

08. Crystal ball

09. Try again

10. Broken toy

11. The frog prince





Log:

Exact Audio Copy V1.0 beta 3 from 29. August 2011

EAC extraction logfile from 3. October 2013, 15:21

Keane / Under The Iron Sea

Used drive  : HL-DT-STDVDRAM GH22NS50   Adapter: 2  ID: 1

Read mode               : Secure
Utilize accurate stream : Yes
Defeat audio cache      : Yes
Make use of C2 pointers : No

Read offset correction                      : 667
Overread into Lead-In and Lead-Out          : No
Fill up missing offset samples with silence : Yes
Delete leading and trailing silent blocks   : No
Null samples used in CRC calculations       : Yes
Used interface                              : Installed external ASPI interface

Used output format : Internal WAV Routines
Sample format      : 44.100 Hz; 16 Bit; Stereo


TOC of the extracted CD

     Track |   Start  |  Length  | Start sector | End sector 
    ---------------------------------------------------------
        1  |  0:00.00 |  4:13.38 |         0    |    19012   
        2  |  4:13.38 |  3:06.13 |     19013    |    32975   
        3  |  7:19.51 |  4:00.29 |     32976    |    51004   
        4  | 11:20.05 |  3:59.51 |     51005    |    68980   
        5  | 15:19.56 |  5:06.65 |     68981    |    91995   
        6  | 20:26.46 |  4:37.19 |     91996    |   112789   
        7  | 25:03.65 |  6:33.55 |    112790    |   142319   
        8  | 31:37.45 |  3:53.72 |    142320    |   159866   
        9  | 35:31.42 |  4:27.61 |    159867    |   179952   
       10  | 39:59.28 |  6:07.74 |    179953    |   207551   
       11  | 46:07.27 |  4:22.64 |    207552    |   227265   


Range status and errors

Selected range

     Filename D:Keane - Under The Iron SeaKeane - Under The Iron Sea.wav

     Peak level 96.6 %
     Extraction speed 1.7 X
     Range quality 100.0 %
     Test CRC 43E07D3C
     Copy CRC 43E07D3C
     Copy OK

No errors occurred

 
AccurateRip summary
 
Track  1  accurately ripped (confidence 4) A6DB9530]  (AR v2)
Track  4  accurately ripped (confidence 4) 9911D37B]  (AR v2)
Track  7  accurately ripped (confidence 4) 5BA2609B]  (AR v2)
Track 10  accurately ripped (confidence 4)




Keane Under The Iron Sea (2006) Flac (4s)
10 Puntos Score: 10/10
Visitas: 503 Favoritos: 2
Ver los usuarios que votaron...
4 Comentarios Keane Under The Iron Sea (2006) Flac (4s)
Buen disco!! Saludos!  
@pirlina
Gracias por pasar y por los puntos  , saludos
muy completa la informacion del ripeo  
@Mizuki
Gracias por pasar  
Para dejar un comentario Registrate! o.. eres ya usuario? Accede!