Oops.. Este post tiene los enlaces eliminados!

Identi revisa las denuncias de los usuarios en busca de enlaces eliminados que no dejan descargar los archivos, este mensaje te informa que este post que estas viendo tiene los enlaces eliminados.

Usa el Buscador

Por favor, te recomendamos que uses el buscador para encontrar más alternativas.

Nirvana MTV Unplugged (1994) Ape (Mg)

  • Categoría: Reciclaje
  • Publicado hace más de 3 años












Información:


Formato: Ape (image+.cue) + Log

Covers: En el rar

Año: 1994 (remasterizado en 2008)



Lista de canciones:


01. About A Girl [Live] 03:37

02. Come As You Are [Live] 04:13


03. Jesus Doesn't Want Me For A Sunbeam [Live] 04:37


04. The Man Who Sold The World [Live] 04:21


05. Pennyroyal Tea [Live] 03:40


06. Dumb [Live] 02:52


07. Polly [Live] 03:16


08. On A Plain [Live] 03:44


09. Something In The Way [Live] 04:01


10. Plateau [Live] 03:38


11. Oh Me [Live] 03:26


12. Lake Of Fire [Live] 02:55


13. All Apologies [Live] 04:23


14. Where Did You Sleep Last Night [Live] 05:08




Log:

Exact Audio Copy V0.99 prebeta 5 from 4. May 2009

EAC extraction logfile from 20. September 2009, 3:03

Nirvana / MTV Unplugged In New York [Live]

Used drive  : SAMSUNG CD-ROM SC-148A   Adapter: 1  ID: 1

Read mode               : Secure
Utilize accurate stream : Yes
Defeat audio cache      : Yes
Make use of C2 pointers : No

Read offset correction                      : 12
Overread into Lead-In and Lead-Out          : Yes
Fill up missing offset samples with silence : Yes
Delete leading and trailing silent blocks   : No
Null samples used in CRC calculations       : Yes
Used interface                              : Native Win32 interface for Win NT & 2000

Used output format : Internal WAV Routines
Sample format      : 44.100 Hz; 16 Bit; Stereo


TOC of the extracted CD

     Track |   Start  |  Length  | Start sector | End sector 
    ---------------------------------------------------------
        1  |  0:00.00 |  3:37.72 |         0    |    16346   
        2  |  3:37.72 |  4:13.68 |     16347    |    35389   
        3  |  7:51.65 |  4:37.25 |     35390    |    56189   
        4  | 12:29.15 |  4:21.02 |     56190    |    75766   
        5  | 16:50.17 |  3:40.38 |     75767    |    92304   
        6  | 20:30.55 |  2:52.72 |     92305    |   105276   
        7  | 23:23.52 |  3:16.35 |    105277    |   120011   
        8  | 26:40.12 |  3:44.58 |    120012    |   136869   
        9  | 30:24.70 |  4:01.37 |    136870    |   154981   
       10  | 34:26.32 |  3:38.08 |    154982    |   171339   
       11  | 38:04.40 |  3:26.15 |    171340    |   186804   
       12  | 41:30.55 |  2:55.70 |    186805    |   199999   
       13  | 44:26.50 |  4:23.20 |    200000    |   219744   
       14  | 48:49.70 |  5:08.00 |    219745    |   242844   


Range status and errors

Selected range

     Filename C:Nirvana - 1994 - MTV Unplugged In New York [Live]Nirvana - 1994 - MTV Unplugged In New York [Live].wav

     Peak level 96.2 %
     Range quality 99.9 %
     Test CRC BD66DF79
     Copy CRC BD66DF79
     Copy OK

No errors occurred

 
AccurateRip summary
 
Track  1  cannot be verified as accurate (confidence 2) C0891D6A], AccurateRip returned [A70A681B]
Track  3  cannot be verified as accurate (confidence 2) 20239936], AccurateRip returned [BA400417]
Track  5  cannot be verified as accurate (confidence 2) 2B3C7490], AccurateRip returned [A8768AB3]
Track  7  cannot be verified as accurate (confidence 2) 43C34330], AccurateRip returned [A66155A9]
Track  9  cannot be verified as accurate (confidence 2) BE7EEE39], AccurateRip returned [3EFBB16B]
Track 11  cannot be verified as accurate (confidence 2) 1723029A], AccurateRip returned [5BDD9E86]
Track 13  cannot be verified as accurate (confidence 2) 41E670B9], AccurateRip returned [ACF4ADEA]
 
No tracks could be verified as accurate
You may have a different pressing from the one(s) in the database

End of status report









Nirvana MTV Unplugged (1994) Ape (Mg)
6 Puntos Score: 3/10
Visitas: 784 Favoritos: 1
Ver los usuarios que votaron...
6 Comentarios Nirvana MTV Unplugged (1994) Ape (Mg)
@nicolzar
Gracias por pasar amigo  
vi el capitulo de los simpson donde parodian a kurt y me dieron ganas de tener este disco. muchas gracias
@gvillela55
Ja ja, gracias por pasar  
Para dejar un comentario Registrate! o.. eres ya usuario? Accede!