The Doors - Morrison Hotel (1970)(Flac)(Mg)










Información:


Formato: Flac (image+.cue) + Log

Covers: En el rar

Año: 1970 (remasterizado en 2006)



Lista de canciones:


01. Roadhouse Blues
02. Waiting for the Sun
03. You Make Me Real
04. Peace Frog
05. Blue Sunday
06. Ship of Fools
07. Land Ho!
08. The Spy
09. Queen of the Highway
10. Indian Summer
11. Maggie M'Gill
12. Talking Blues
13. Roadhouse Blues (Takes 1-3)
14. Roadhouse Blues (Take 6)
15. Carol
16. Roadhouse Blues (Take 1)
17. Money Beats Soul
18. Roadhouse Blues (Takes 13-15)
19. Peace Frog (False Starts & Dialogue)
20. The Spy (Version 2) 
21. Queen of the Highway (Jazz Version)





Log:

Exact Audio Copy V0.99 prebeta 3 from 28. July 2007

EAC extraction logfile from 29. September 2010, 19:32

The Doors / Perception Boxset 2006 (Disc 5 - Morrison Hotel)

Used drive  : Optiarc DVD RW AD-7173S   Adapter: 3  ID: 0

Read mode               : Secure
Utilize accurate stream : Yes
Defeat audio cache      : Yes
Make use of C2 pointers : No

Read offset correction                      : 48
Overread into Lead-In and Lead-Out          : No
Fill up missing offset samples with silence : Yes
Delete leading and trailing silent blocks   : No
Null samples used in CRC calculations       : Yes
Used interface                              : Native Win32 interface for Win NT & 2000

Used output format : Internal WAV Routines
Sample format      : 44.100 Hz; 16 Bit; Stereo


TOC of the extracted CD

     Track |   Start  |  Length  | Start sector | End sector 
    ---------------------------------------------------------
        1  |  0:00.00 |  4:04.55 |         0    |    18354   
        2  |  4:04.55 |  4:00.16 |     18355    |    36370   
        3  |  8:04.71 |  2:53.21 |     36371    |    49366   
        4  | 10:58.17 |  2:49.69 |     49367    |    62110   
        5  | 13:48.11 |  2:13.02 |     62111    |    72087   
        6  | 16:01.13 |  3:08.39 |     72088    |    86226   
        7  | 19:09.52 |  4:10.25 |     86227    |   105001   
        8  | 23:20.02 |  4:17.00 |    105002    |   124276   
        9  | 27:37.02 |  2:47.29 |    124277    |   136830   
       10  | 30:24.31 |  2:35.61 |    136831    |   148516   
       11  | 33:00.17 |  4:25.19 |    148517    |   168410   
       12  | 37:25.36 |  0:59.12 |    168411    |   172847   
       13  | 38:24.48 |  8:47.49 |    172848    |   212421   
       14  | 47:12.22 |  9:27.49 |    212422    |   254995   
       15  | 56:39.71 |  0:55.34 |    254996    |   259154   
       16  | 57:35.30 |  4:32.42 |    259155    |   279596   
       17  | 62:07.72 |  1:05.21 |    279597    |   284492   
       18  | 63:13.18 |  6:20.62 |    284493    |   313054   
       19  | 69:34.05 |  2:00.25 |    313055    |   322079   
       20  | 71:34.30 |  3:48.10 |    322080    |   339189   
       21  | 75:22.40 |  3:36.63 |    339190    |   355452   


Range status and errors

Selected range

     Filename W:CDThe Doors (Perception Boxset CD5 - Morrison Hotel 1970) 2006The Doors - Perception Boxset 2006 (Disc 5 - Morrison Hotel).wav

     Peak level 98.9 %
     Range quality 99.9 %
     Test CRC 227465F3
     Copy CRC 227465F3
     Copy OK

No errors occurred

 
AccurateRip summary
 
Track  1  accurately ripped (confidence 33) 962161A7]
Track  4  accurately ripped (confidence 34) 0D2ADDC6]
Track  7  accurately ripped (confidence 33) 66336079]
Track 10  accurately ripped (confidence 34) 7B94B496]
Track 13  accurately ripped (confidence 32) F060E87D]
Track 16  accurately ripped (confidence 32) ED0CE07D]
Track 19  accurately ripped (confidence 32) 1824CC7B]
 
All tracks accurately ripped

End of status report






Contraseña: ellocoboni




The Doors - Morrison Hotel (1970)(Flac)(Mg)
20 Puntos Score: 10/10
Visitas: 630 Favoritos: 5
Ver los usuarios que votaron...
5 Comentarios The Doors - Morrison Hotel (1970)(Flac)(Mg)
Un disco muy bueno. Gracias por subirlo.
@R0BERTIT0
Gracias por los puntos  
@sysyphus1
Gracias por pasar amigo  
Para dejar un comentario Registrate! o.. eres ya usuario? Accede!