John Fogerty - Eye Of The Zombie (1986)(Flac)(Mg)











Información:


Formato: Flac (image+.cue) + Log

Covers: En el rar

Año: 1986



Lista de canciones:


01 - Goin' Back Home

02 - Eye Of The Zombie

03 - Headlines

04 - Knockin' On Your Door

05 - Change In The Weather

06 - Violence Is Golden

07 - Wasn't That A Woman

08 - Soda Pop

09 - Sail Away





Log:

Exact Audio Copy V0.99 prebeta 4 from 23. January 2008

EAC extraction logfile from 22. July 2008, 19:24

John Fogerty / Eye of the Zombie

Used drive  : TSSTcorpDVD+-RW TS-L632D   Adapter: 0  ID: 0

Read mode               : Secure
Utilize accurate stream : Yes
Defeat audio cache      : No
Make use of C2 pointers : No

Read offset correction                      : 6
Overread into Lead-In and Lead-Out          : No
Fill up missing offset samples with silence : Yes
Delete leading and trailing silent blocks   : No
Null samples used in CRC calculations       : Yes
Used interface                              : Native Win32 interface for Win NT & 2000

Used output format              : User Defined Encoder
Selected bitrate                : 768 kBit/s
Quality                         : High
Add ID3 tag                     : No
Command line compressor         : C:Program FilesExact Audio CopyFLACFLAC.EXE
Additional command line options : -8 -V -T "ARTIST=%a" -T "TITLE=%t" -T "ALBUM=%g" -T "DATE=%y" -T "TRACKNUMBER=%n" -T "GENRE=%m" -T "COMMENT=%e" %s -o %d


TOC of the extracted CD

     Track |   Start  |  Length  | Start sector | End sector 
    ---------------------------------------------------------
        1  |  0:00.00 |  3:34.02 |         0    |    16051   
        2  |  3:34.02 |  4:35.45 |     16052    |    36721   
        3  |  8:09.47 |  4:29.23 |     36722    |    56919   
        4  | 12:38.70 |  4:18.10 |     56920    |    76279   
        5  | 16:57.05 |  6:48.40 |     76280    |   106919   
        6  | 23:45.45 |  5:20.55 |    106920    |   130974   
        7  | 29:06.25 |  4:12.27 |    130975    |   149901   
        8  | 33:18.52 |  5:54.28 |    149902    |   176479   
        9  | 39:13.05 |  4:41.62 |    176480    |   197616   


Range status and errors

Selected range

     Filename C:Documents and SettingsJohn Fogerty - Eye of the Zombie.wav

     Peak level 98.8 %
     Range quality 100.0 %
     Test CRC 72B99E3C
     Copy CRC 72B99E3C
     Copy OK

No errors occurred

 
AccurateRip summary
 
Track  1  accurately ripped (confidence 2) B265FF46]
Track  4  accurately ripped (confidence 2) 01C4058A]
Track  7  accurately ripped (confidence 2) 4600EEC6]
 
All tracks accurately ripped

End of status report







Contraseña: ellocoboni





John Fogerty - Eye Of The Zombie (1986)(Flac)(Mg)
10 Puntos Score: 10/10
Visitas: 386 Favoritos: 0
Ver los usuarios que votaron...
2 Comentarios John Fogerty - Eye Of The Zombie (1986)(Flac)(Mg)
Gracias x compartirlo.
@R0BERTIT0
Gracias por pasar y por los puntos  
Para dejar un comentario Registrate! o.. eres ya usuario? Accede!