Oops.. Este post tiene los enlaces eliminados!

Identi revisa las denuncias de los usuarios en busca de enlaces eliminados que no dejan descargar los archivos, este mensaje te informa que este post que estas viendo tiene los enlaces eliminados.

Usa el Buscador

Por favor, te recomendamos que uses el buscador para encontrar más alternativas.

Nirvana In Utero (1993) Ape (Mg)

  • Categoría: Reciclaje
  • Publicado hace más de 3 años












Información:


Formato: Ape (image+.cue) + Log

Covers: En el rar

Año: 1993 (remasterizado en 2008)



Lista de canciones:


01. Serve The Servants 03:36


02. Scentless Apprentice 03:48


03. Heart-Shaped Box 04:41


04. Rape Me 02:50


05. Frances Farmer Will Have Her Revenge On Seattle 04:09


06. Dumb 02:31


07. Very Ape 01:55


08. Milk It 03:54


09. Pennyroyal Tea 03:37


10. Radio Friendly Unit Shifter 04:51


11. Tourette's 01:35


12. All Apologies + Gallons Of Rubbing Alcohol Flow Through The Strip 31:34





Log:

Exact Audio Copy V0.99 prebeta 5 from 4. May 2009

EAC extraction logfile from 13. September 2009, 17:20

Nirvana / In Utero

Used drive  : SAMSUNG CD-ROM SC-148A   Adapter: 1  ID: 1

Read mode               : Secure
Utilize accurate stream : Yes
Defeat audio cache      : Yes
Make use of C2 pointers : No

Read offset correction                      : 12
Overread into Lead-In and Lead-Out          : Yes
Fill up missing offset samples with silence : Yes
Delete leading and trailing silent blocks   : No
Null samples used in CRC calculations       : Yes
Used interface                              : Native Win32 interface for Win NT & 2000

Used output format : Internal WAV Routines
Sample format      : 44.100 Hz; 16 Bit; Stereo


TOC of the extracted CD

     Track |   Start  |  Length  | Start sector | End sector 
    ---------------------------------------------------------
        1  |  0:00.00 |  3:36.43 |         0    |    16242   
        2  |  3:36.43 |  3:48.12 |     16243    |    33354   
        3  |  7:24.55 |  4:41.05 |     33355    |    54434   
        4  | 12:05.60 |  2:50.08 |     54435    |    67192   
        5  | 14:55.68 |  4:09.45 |     67193    |    85912   
        6  | 19:05.38 |  2:31.60 |     85913    |    97297   
        7  | 21:37.23 |  1:55.50 |     97298    |   105972   
        8  | 23:32.73 |  3:54.57 |    105973    |   123579   
        9  | 27:27.55 |  3:37.13 |    123580    |   139867   
       10  | 31:04.68 |  4:51.10 |    139868    |   161702   
       11  | 35:56.03 |  1:35.15 |    161703    |   168842   
       12  | 37:31.18 | 31:34.57 |    168843    |   310949   


Range status and errors

Selected range

     Filename C:Nirvana - 1993 - In UteroNirvana - 1993 - In Utero.wav

     Peak level 97.7 %
     Range quality 100.0 %
     Test CRC DE6D8A18
     Copy CRC DE6D8A18
     Copy OK

No errors occurred

 
AccurateRip summary
 
Track  1  accurately ripped (confidence 2) B5ED0250]
Track  4  accurately ripped (confidence 2) 1749BE57]
Track  7  accurately ripped (confidence 2) 3D396548]
Track 10  accurately ripped (confidence 2) 8E9B52D7]
 
All tracks accurately ripped

End of status report







Contraseña: ellocoboni




Nirvana In Utero (1993) Ape (Mg)
10 Puntos Score: 10/10
Visitas: 1028 Favoritos: 1
Ver los usuarios que votaron...
6 Comentarios Nirvana In Utero (1993) Ape (Mg)
@crissama
Gracias por pasar y por los puntos  
Grandeee..Gracias
@karzon
Gracias por pasar  
@klaudio21
Gracias por pasar amigo  
Para dejar un comentario Registrate! o.. eres ya usuario? Accede!