Oops.. Este post tiene los enlaces eliminados!

Identi revisa las denuncias de los usuarios en busca de enlaces eliminados que no dejan descargar los archivos, este mensaje te informa que este post que estas viendo tiene los enlaces eliminados.

Usa el Buscador

Por favor, te recomendamos que uses el buscador para encontrar más alternativas.

Nirvana Incesticide (1992) Ape (Mg)

  • Categoría: Reciclaje
  • Publicado hace más de 3 años













Información:


Formato: Ape (image+.cue) + Log

Covers: En el rar

Año: 1992 (remasterizado en 2008)



Lista de canciones:


01. Dive 03:55


02. Sliver 02:16


03. Stain 02:40


04. Been A Son 01:55


05. Turnaround 02:19


06. Molly's Lips 01:54


07. Son Of A Gun 02:48


08. (New Wave) Polly 01:47


09. Beeswax 02:50


10. Downer 01:43


11. Mexican Seafood 01:55


12. Hairspray Queen 04:13


13. Aero Zeppelin 04:41


14. Big Long Now 05:03


15. Aneurysm 04:37





Log:

Exact Audio Copy V0.99 prebeta 5 from 4. May 2009

EAC extraction logfile from 17. November 2009, 3:09

Nirvana / Incesticide [Compilation]

Used drive  : SAMSUNG CD-ROM SC-148A   Adapter: 1  ID: 1

Read mode               : Secure
Utilize accurate stream : Yes
Defeat audio cache      : Yes
Make use of C2 pointers : No

Read offset correction                      : 12
Overread into Lead-In and Lead-Out          : Yes
Fill up missing offset samples with silence : Yes
Delete leading and trailing silent blocks   : No
Null samples used in CRC calculations       : Yes
Used interface                              : Native Win32 interface for Win NT & 2000

Used output format : Internal WAV Routines
Sample format      : 44.100 Hz; 16 Bit; Stereo


TOC of the extracted CD

     Track |   Start  |  Length  | Start sector | End sector 
    ---------------------------------------------------------
        1  |  0:00.00 |  3:55.40 |         0    |    17664   
        2  |  3:55.40 |  2:16.35 |     17665    |    27899   
        3  |  6:12.00 |  2:40.70 |     27900    |    39969   
        4  |  8:52.70 |  1:55.45 |     39970    |    48639   
        5  | 10:48.40 |  2:19.18 |     48640    |    59082   
        6  | 13:07.58 |  1:54.12 |     59083    |    67644   
        7  | 15:01.70 |  2:48.33 |     67645    |    80277   
        8  | 17:50.28 |  1:47.57 |     80278    |    88359   
        9  | 19:38.10 |  2:50.10 |     88360    |   101119   
       10  | 22:28.20 |  1:43.65 |    101120    |   108909   
       11  | 24:12.10 |  1:55.30 |    108910    |   117564   
       12  | 26:07.40 |  4:13.48 |    117565    |   136587   
       13  | 30:21.13 |  4:41.40 |    136588    |   157702   
       14  | 35:02.53 |  5:03.35 |    157703    |   180462   
       15  | 40:06.13 |  4:37.65 |    180463    |   201302   


Range status and errors

Selected range

     Filename C:Nirvana - 1992 - Incesticide [Compilation]Nirvana - 1992 - Incesticide [Compilation].wav

     Peak level 100.0 %
     Range quality 99.9 %
     Test CRC 53FD0F47
     Copy CRC 53FD0F47
     Copy OK

No errors occurred

 
AccurateRip summary
 
Track  1  accurately ripped (confidence 3) 9B1B1F43]
Track  4  accurately ripped (confidence 3) 7F73DA3B]
Track  7  accurately ripped (confidence 3) 2CE711E8]
Track 10  accurately ripped (confidence 3) BE541E57]
Track 13  accurately ripped (confidence 3) 967A8726]
 
All tracks accurately ripped

End of status report








Nirvana Incesticide (1992) Ape (Mg)
0 Puntos Score: 0/10
Visitas: 303 Favoritos: 0
0 Comentarios Nirvana Incesticide (1992) Ape (Mg)
Este post no tiene comentarios. Sea el primero!
Para dejar un comentario Registrate! o.. eres ya usuario? Accede!