Oops.. Este post tiene los enlaces eliminados!

Identi revisa las denuncias de los usuarios en busca de enlaces eliminados que no dejan descargar los archivos, este mensaje te informa que este post que estas viendo tiene los enlaces eliminados.

Usa el Buscador

Por favor, te recomendamos que uses el buscador para encontrar más alternativas.

Nirvana Nevermind (1991) Ape (Mg)

  • Categoría: Reciclaje
  • Publicado hace más de 3 años











Información:


Formato: Ape (image+.cue) + Log

Covers: En el rar

Año: 1991 (remasterizado en 2008)



Lista de canciones:


01. Smells Like Teen Spirit 05:01

02. In Bloom 04:14


03. Come As You Are 03:39


04. Breed 03:03


05. Lithium 04:16


06. Polly 02:57


07. Territorial Pissings 02:23


08. Drain You 03:43


09. Lounge Act 02:36


10. Stay Away 03:32


11. On A Plain 03:16


12. Something In The Way + Endless, Nameless 20:37






Log:


Exact Audio Copy V0.99 prebeta 5 from 4. May 2009

EAC extraction logfile from 13. September 2009, 16:42

Nirvana / Nevermind

Used drive  : SAMSUNG CD-ROM SC-148A   Adapter: 1  ID: 1

Read mode               : Secure
Utilize accurate stream : Yes
Defeat audio cache      : Yes
Make use of C2 pointers : No

Read offset correction                      : 12
Overread into Lead-In and Lead-Out          : Yes
Fill up missing offset samples with silence : Yes
Delete leading and trailing silent blocks   : No
Null samples used in CRC calculations       : Yes
Used interface                              : Native Win32 interface for Win NT & 2000

Used output format : Internal WAV Routines
Sample format      : 44.100 Hz; 16 Bit; Stereo


TOC of the extracted CD

     Track |   Start  |  Length  | Start sector | End sector 
    ---------------------------------------------------------
        1  |  0:00.00 |  5:01.45 |         0    |    22619   
        2  |  5:01.45 |  4:14.68 |     22620    |    41737   
        3  |  9:16.38 |  3:39.25 |     41738    |    58187   
        4  | 12:55.63 |  3:03.42 |     58188    |    71954   
        5  | 15:59.30 |  4:16.73 |     71955    |    91227   
        6  | 20:16.28 |  2:57.00 |     91228    |   104502   
        7  | 23:13.28 |  2:23.25 |    104503    |   115252   
        8  | 25:36.53 |  3:43.65 |    115253    |   132042   
        9  | 29:20.43 |  2:36.42 |    132043    |   143784   
       10  | 31:57.10 |  3:32.35 |    143785    |   159719   
       11  | 35:29.45 |  3:16.28 |    159720    |   174447   
       12  | 38:45.73 | 20:37.37 |    174448    |   267259   


Range status and errors

Selected range

     Filename C:Nirvana - 1991 - NevermindNirvana - 1991 - Nevermind.wav

     Peak level 97.7 %
     Range quality 99.9 %
     Test CRC E3587AD4
     Copy CRC E3587AD4
     Copy OK

No errors occurred

 
AccurateRip summary
 
Track  1  cannot be verified as accurate (confidence 2)




Nirvana Nevermind (1991) Ape (Mg)
4 Puntos Score: 4/10
Visitas: 540 Favoritos: 1
Ver los usuarios que votaron...
8 Comentarios Nirvana Nevermind (1991) Ape (Mg)
mientras la gente siga compartiendo la buena musica, esta jam?
@mauri_i94
Gracias por pasar y por los puntos  
Gracias Amigo. Magnifico Post.
La mejor de la mejor.

03. Come As You Are 03:39
Gracias por el discazo y por el aporte,Saludos!
gracias excelente disco gracias por compartir es de mis favoritos
@fraram_83
Gracias por pasar  y comentar
Para dejar un comentario Registrate! o.. eres ya usuario? Accede!