Oops.. Este post tiene los enlaces eliminados!

Identi revisa las denuncias de los usuarios en busca de enlaces eliminados que no dejan descargar los archivos, este mensaje te informa que este post que estas viendo tiene los enlaces eliminados.

Usa el Buscador

Por favor, te recomendamos que uses el buscador para encontrar más alternativas.

Guns N' Roses Use Your Illusion II (1991) Ape (Mg)

  • Categoría: Reciclaje
  • Publicado hace más de 3 años














Información:


Formato: Ape (image+.cue) + Log

Covers: En el rar

Año: 1991 (remasterizado en 2008)



Lista de canciones:


01. Civil War 07:42

02. 14 Years 04:21


03. Yesterdays 03:16


04. Knockin' On Heaven's Door 05:35


05. Get In The Ring 05:41


06. Shotgun Blues 03:23


07. Breakdown 07:04


08. Pretty Tied Up 04:48


09. Locomotive 08:41


10. So Fine 04:06


11. Estranged 09:24


12. You Could Be Mine 05:43


13. Don't Cry [Alternate Lyrics] 04:44


14. My World 01:26





Log:

Exact Audio Copy V0.99 prebeta 5 from 4. May 2009

EAC extraction logfile from 7. September 2009, 17:12

Guns N' Roses / Use Your Illusion II

Used drive  : SAMSUNG CD-ROM SC-148A   Adapter: 1  ID: 1

Read mode               : Secure
Utilize accurate stream : Yes
Defeat audio cache      : Yes
Make use of C2 pointers : No

Read offset correction                      : 12
Overread into Lead-In and Lead-Out          : Yes
Fill up missing offset samples with silence : Yes
Delete leading and trailing silent blocks   : No
Null samples used in CRC calculations       : Yes
Used interface                              : Native Win32 interface for Win NT & 2000

Used output format : Internal WAV Routines
Sample format      : 44.100 Hz; 16 Bit; Stereo


TOC of the extracted CD

     Track |   Start  |  Length  | Start sector | End sector 
    ---------------------------------------------------------
        1  |  0:00.00 |  7:42.57 |         0    |    34706   
        2  |  7:42.57 |  4:21.23 |     34707    |    54304   
        3  | 12:04.05 |  3:16.20 |     54305    |    69024   
        4  | 15:20.25 |  5:35.67 |     69025    |    94216   
        5  | 20:56.17 |  5:41.30 |     94217    |   119821   
        6  | 26:37.47 |  3:23.08 |    119822    |   135054   
        7  | 30:00.55 |  7:04.22 |    135055    |   166876   
        8  | 37:05.02 |  4:48.13 |    166877    |   188489   
        9  | 41:53.15 |  8:41.72 |    188490    |   227636   
       10  | 50:35.12 |  4:06.23 |    227637    |   246109   
       11  | 54:41.35 |  9:24.02 |    246110    |   288411   
       12  | 64:05.37 |  5:43.35 |    288412    |   314171   
       13  | 69:48.72 |  4:44.18 |    314172    |   335489   
       14  | 74:33.15 |  1:26.37 |    335490    |   341976   


Range status and errors

Selected range

     Filename C:Guns N' Roses - 1991 - Use Your Illusion IIGuns N' Roses - 1991 - Use Your Illusion II.wav

     Peak level 100.0 %
     Range quality 100.0 %
     Test CRC 05F25969
     Copy CRC 05F25969
     Copy OK

No errors occurred

 
AccurateRip summary
 
Track  1  cannot be verified as accurate (confidence 2) 79EE282E], AccurateRip returned [7396AFF4]
Track  4  cannot be verified as accurate (confidence 2) 76562A10], AccurateRip returned [B13E18BB]
Track  7  cannot be verified as accurate (confidence 2)




Guns N' Roses Use Your Illusion II (1991) Ape (Mg)
1 Puntos Score: 1/10
Visitas: 621 Favoritos: 0
Ver los usuarios que votaron...
7 Comentarios Guns N' Roses Use Your Illusion II (1991) Ape (Mg)
@ellocoboni  de nada   aguante River  
Muchas gracias!!!
graciassssssssssss
Para dejar un comentario Registrate! o.. eres ya usuario? Accede!