Oops.. Este post tiene los enlaces eliminados!

Identi revisa las denuncias de los usuarios en busca de enlaces eliminados que no dejan descargar los archivos, este mensaje te informa que este post que estas viendo tiene los enlaces eliminados.

Usa el Buscador

Por favor, te recomendamos que uses el buscador para encontrar más alternativas.

Guns N' Roses Use Your Illusion I (1991) Ape (Mg)

  • Categoría: Reciclaje
  • Publicado hace más de 3 años














Información:


Formato: Ape (image+.cue) + Log

Covers: En el rar

Año: 1991 (remasterizado en 2008)



Lista de canciones:


01. Right Next Door To Hell 03:02

02. Dust N' Bones 04:58


03. Live And Let Die 03:03


04. Don't Cry [Original] 04:44


05. Perfect Crime 02:23


06. You Ain't The First 02:36


07. Bad Obsession 05:28


08. Back Off Bitch 05:03


09. Double Talkin' Jive 03:23


10. November Rain 08:57


11. The Garden (Featuring Alice Cooper) 05:22


12. Garden Of Eden 02:41


13. Don't Damn Me 05:18


14. Bad Apples 04:28


15. Dead Horse 04:17


16. Coma 10:16





Log:

Exact Audio Copy V0.99 prebeta 5 from 4. May 2009

EAC extraction logfile from 7. September 2009, 16:26

Guns N' Roses / Use Your Illusion I

Used drive  : SAMSUNG CD-ROM SC-148A   Adapter: 1  ID: 1

Read mode               : Secure
Utilize accurate stream : Yes
Defeat audio cache      : Yes
Make use of C2 pointers : No

Read offset correction                      : 12
Overread into Lead-In and Lead-Out          : Yes
Fill up missing offset samples with silence : Yes
Delete leading and trailing silent blocks   : No
Null samples used in CRC calculations       : Yes
Used interface                              : Native Win32 interface for Win NT & 2000

Used output format : Internal WAV Routines
Sample format      : 44.100 Hz; 16 Bit; Stereo


TOC of the extracted CD

     Track |   Start  |  Length  | Start sector | End sector 
    ---------------------------------------------------------
        1  |  0:00.00 |  3:02.30 |         0    |    13679   
        2  |  3:02.30 |  4:58.32 |     13680    |    36061   
        3  |  8:00.62 |  3:03.68 |     36062    |    49854   
        4  | 11:04.55 |  4:44.62 |     49855    |    71216   
        5  | 15:49.42 |  2:23.43 |     71217    |    81984   
        6  | 18:13.10 |  2:36.10 |     81985    |    93694   
        7  | 20:49.20 |  5:28.20 |     93695    |   118314   
        8  | 26:17.40 |  5:03.40 |    118315    |   141079   
        9  | 31:21.05 |  3:23.52 |    141080    |   156356   
       10  | 34:44.57 |  8:57.25 |    156357    |   196656   
       11  | 43:42.07 |  5:22.15 |    196657    |   220821   
       12  | 49:04.22 |  2:41.58 |    220822    |   232954   
       13  | 51:46.05 |  5:18.62 |    232955    |   256866   
       14  | 57:04.67 |  4:28.18 |    256867    |   276984   
       15  | 61:33.10 |  4:17.55 |    276985    |   296314   
       16  | 65:50.65 | 10:16.12 |    296315    |   342526   


Range status and errors

Selected range

     Filename C:Guns N' Roses - 1991 - Use Your Illusion IGuns N' Roses - 1991 - Use Your Illusion I.wav

     Peak level 100.0 %
     Range quality 99.9 %
     Test CRC 00AA844A
     Copy CRC 00AA844A
     Copy OK

No errors occurred

 
AccurateRip summary
 
Track  1  accurately ripped (confidence 2) Â
Track  2  accurately ripped (confidence 2) Â
Track  3  accurately ripped (confidence 2) Â
Track  4  accurately ripped (confidence 2) Â
Track  5  accurately ripped (confidence 2) Â
Track  6  accurately ripped (confidence 2) Â
Track  7  accurately ripped (confidence 2) Â
Track  8  accurately ripped (confidence 2) Â
Track  9  accurately ripped (confidence 2) Â
Track 10  accurately ripped (confidence 2) Â
Track 11  accurately ripped (confidence 2) Â
Track 12  accurately ripped (confidence 2) Â
Track 13  accurately ripped (confidence 2) Â
Track 14  accurately ripped (confidence 2) Â
Track 15  accurately ripped (confidence 2) Â
Track 16  accurately ripped (confidence 2) Â
 
All tracks accurately ripped

End of status report






Guns N' Roses Use Your Illusion I (1991) Ape (Mg)
0 Puntos Score: 0/10
Visitas: 676 Favoritos: 0
10 Comentarios Guns N' Roses Use Your Illusion I (1991) Ape (Mg)
descargandoooooooooo............ man pq pesa mucho (wav)
@lulu201323
Gracias por pasar amigo . El peso es mas que un Mp3 porque tanto el Ape, Flac y Wavpack son formatos de audio sin perdida de datos.
graxias man no lo sabia. buen sonido full volumen, gracias.
Me recomiendan alg?
@c.mancilla
El VLC es bueno, o sino tambien el Foobar2000.
Me parece a mi o el disco est?
@c.mancilla
Si, esta ripeado en una sola pista; para reproducir canci?
Gracias uno de mis favoritos !!  
como lo descomprimo ?
Para dejar un comentario Registrate! o.. eres ya usuario? Accede!