Keane - Hopes And Fears (2004)(Flac)(Firedrive)















Información:


Formato: Flac (image+.cue) + Log

Scans: En el rar

Año: 2004



Lista de canciones:



01. Somewhere Only We Know

02. This Is The Last Time

03. Bend And Break

04. We Might As Well Be Strangers

05. Everybody´s Changing

06. Your Eyes Open

07. She Has No Time

08. Can´t Stop Now

09. Sunshine

10. Untitled 1

11. Bedshaped





Log:


Exact Audio Copy V1.0 beta 3 from 29. August 2011

EAC extraction logfile from 3. October 2013, 14:15

Keane / Hopes And Fears

Used drive  : HL-DT-STDVDRAM GH22NS50   Adapter: 2  ID: 1

Read mode               : Secure
Utilize accurate stream : Yes
Defeat audio cache      : Yes
Make use of C2 pointers : No

Read offset correction                      : 667
Overread into Lead-In and Lead-Out          : No
Fill up missing offset samples with silence : Yes
Delete leading and trailing silent blocks   : No
Null samples used in CRC calculations       : Yes
Used interface                              : Installed external ASPI interface

Used output format : Internal WAV Routines
Sample format      : 44.100 Hz; 16 Bit; Stereo


TOC of the extracted CD

     Track |   Start  |  Length  | Start sector | End sector 
    ---------------------------------------------------------
        1  |  0:00.00 |  3:57.43 |         0    |    17817   
        2  |  3:57.43 |  3:29.25 |     17818    |    33517   
        3  |  7:26.68 |  3:39.64 |     33518    |    50006   
        4  | 11:06.57 |  3:12.19 |     50007    |    64425   
        5  | 14:19.01 |  3:36.42 |     64426    |    80667   
        6  | 17:55.43 |  3:22.51 |     80668    |    95868   
        7  | 21:18.19 |  5:46.06 |     95869    |   121824   
        8  | 27:04.25 |  3:38.48 |    121825    |   138222   
        9  | 30:42.73 |  4:12.35 |    138223    |   157157   
       10  | 34:55.33 |  5:36.46 |    157158    |   182403   
       11  | 40:32.04 |  4:37.51 |    182404    |   203229   


Range status and errors

Selected range

     Filename D:Keane - Hopes And FearsKeane - Hopes And Fears.wav

     Peak level 100.0 %
     Extraction speed 1.9 X
     Range quality 100.0 %
     Test CRC EB0B2DA8
     Copy CRC EB0B2DA8
     Copy OK

No errors occurred

 
AccurateRip summary
 
Track  1  accurately ripped (confidence 182) 0468B65E]  (AR v2)
Track  4  accurately ripped (confidence 179) A8C3F6BE]  (AR v2)
Track  7  accurately ripped (confidence 179) BF7E0A00]  (AR v2)
Track 10  accurately ripped (confidence 180)







Contraseña: ellocoboni





Keane - Hopes And Fears (2004)(Flac)(Firedrive)
0 Puntos Score: 0/10
Visitas: 1125 Favoritos: 0
9 Comentarios Keane - Hopes And Fears (2004)(Flac)(Firedrive)
@juanjo007
Gracias por pasar  amigo
esta caido, muchas gracias por el aporte igualmente. si resubis avisa porfa
@ellocoboni gracias, muy buen aporte
Para dejar un comentario Registrate! o.. eres ya usuario? Accede!