The Doors - The Soft Parade (1969)(Flac)(Mg)









Información:


Formato: Flac (image+.cue) + Log

Covers: En el rar

Año: 1969 (remasterizado en 2006)



Lista de canciones:


01. Tell All the People
02. Touch Me
03. Shaman's Blues
04. Do It
05. Easy Ride
06. Wild Child
07. Runnin' Blue
08. Wishful Sinful
09. The Soft Parade
10. Who Scared You
11. Whiskey, Mystics and Men (Version 1)
12. Whiskey, Mystics and Men (Version 2)
13. Push Push
14. Touch Me (Dialogue)
15. Touch Me (Take 3)




Log:

Exact Audio Copy V0.99 prebeta 3 from 28. July 2007

EAC extraction logfile from 29. September 2010, 13:10

The Doors / Perception Boxset 2006 (Disc 3 - The Soft Parade)

Used drive  : Optiarc DVD RW AD-7173S   Adapter: 3  ID: 0

Read mode               : Secure
Utilize accurate stream : Yes
Defeat audio cache      : Yes
Make use of C2 pointers : No

Read offset correction                      : 48
Overread into Lead-In and Lead-Out          : No
Fill up missing offset samples with silence : Yes
Delete leading and trailing silent blocks   : No
Null samples used in CRC calculations       : Yes
Used interface                              : Native Win32 interface for Win NT & 2000

Used output format : Internal WAV Routines
Sample format      : 44.100 Hz; 16 Bit; Stereo


TOC of the extracted CD

     Track |   Start  |  Length  | Start sector | End sector 
    ---------------------------------------------------------
        1  |  0:00.00 |  3:21.35 |         0    |    15109   
        2  |  3:21.35 |  3:12.32 |     15110    |    29541   
        3  |  6:33.67 |  4:48.36 |     29542    |    51177   
        4  | 11:22.28 |  3:08.74 |     51178    |    65351   
        5  | 14:31.27 |  2:43.14 |     65352    |    77590   
        6  | 17:14.41 |  2:36.66 |     77591    |    89356   
        7  | 19:51.32 |  2:27.58 |     89357    |   100439   
        8  | 22:19.15 |  2:58.21 |    100440    |   113810   
        9  | 25:17.36 |  8:41.47 |    113811    |   152932   
       10  | 33:59.08 |  3:58.63 |    152933    |   170845   
       11  | 37:57.71 |  2:28.37 |    170846    |   181982   
       12  | 40:26.33 |  3:04.58 |    181983    |   195840   
       13  | 43:31.16 |  6:06.23 |    195841    |   223313   
       14  | 49:37.39 |  0:31.19 |    223314    |   225657   
       15  | 50:08.58 |  3:36.45 |    225658    |   241902   


Range status and errors

Selected range

     Filename W:CDThe Doors (Perception Boxset CD4 - The Soft Parade 1969) 2006The Doors - Perception Boxset 2006 (Disc 3 - The Soft Parade).wav

     Peak level 98.9 %
     Range quality 100.0 %
     Test CRC 15829584
     Copy CRC 15829584
     Copy OK

No errors occurred

 
AccurateRip summary
 
Track  1  accurately ripped (confidence 36)
Track  2  accurately ripped (confidence 37)
Track  3  accurately ripped (confidence 36)
Track  4  accurately ripped (confidence 37)
Track  5  accurately ripped (confidence 37)
Track  6  accurately ripped (confidence 37)
Track  7  accurately ripped (confidence 37)
Track  8  accurately ripped (confidence 37)
Track  9  accurately ripped (confidence 37)
Track 10  accurately ripped (confidence 36)
Track 11  accurately ripped (confidence 36)
Track 12  accurately ripped (confidence 36)
Track 13  accurately ripped (confidence 35)
Track 14  accurately ripped (confidence 35)
Track 15  accurately ripped (confidence 34)
 
All tracks accurately ripped

End of status report






Contraseña: ellocoboni




The Doors - The Soft Parade (1969)(Flac)(Mg)
20 Puntos Score: 10/10
Visitas: 541 Favoritos: 1
Ver los usuarios que votaron...
3 Comentarios The Doors - The Soft Parade (1969)(Flac)(Mg)
Excelente! Gracias
Para dejar un comentario Registrate! o.. eres ya usuario? Accede!