Oops.. Este post tiene los enlaces eliminados!

Identi revisa las denuncias de los usuarios en busca de enlaces eliminados que no dejan descargar los archivos, este mensaje te informa que este post que estas viendo tiene los enlaces eliminados.

Usa el Buscador

Por favor, te recomendamos que uses el buscador para encontrar más alternativas.

Nirvana Bleach (1989) Ape (Mg)

  • Categoría: Reciclaje
  • Publicado hace más de 3 años













Información:


Formato: Ape (image+.cue) + Log

Covers: En el rar

Año: 1989 (remasterizado en 2008)



Lista de canciones:


01. Blew 02:54


02. Floyd The Barber 02:17


03. About A Girl 02:48


04. School 02:42


05. Love Buzz 03:35


06. Paper Cuts 04:05


07. Negative Creep 02:55


08. Scoff 04:10


09. Swap Meet 03:03


10. Mr. Moustache 03:23


11. Sifting 05:22


12. Big Cheese 03:42


13. Downer 01:42




Log:

Exact Audio Copy V0.99 prebeta 5 from 4. May 2009

EAC extraction logfile from 13. September 2009, 16:05

Nirvana / Bleach [Remastered]

Used drive  : SAMSUNG CD-ROM SC-148A   Adapter: 1  ID: 1

Read mode               : Secure
Utilize accurate stream : Yes
Defeat audio cache      : Yes
Make use of C2 pointers : No

Read offset correction                      : 12
Overread into Lead-In and Lead-Out          : Yes
Fill up missing offset samples with silence : Yes
Delete leading and trailing silent blocks   : No
Null samples used in CRC calculations       : Yes
Used interface                              : Native Win32 interface for Win NT & 2000

Used output format : Internal WAV Routines
Sample format      : 44.100 Hz; 16 Bit; Stereo


TOC of the extracted CD

     Track |   Start  |  Length  | Start sector | End sector 
    ---------------------------------------------------------
        1  |  0:00.00 |  2:54.33 |         0    |    13082   
        2  |  2:54.33 |  2:17.72 |     13083    |    23429   
        3  |  5:12.30 |  2:48.20 |     23430    |    36049   
        4  |  8:00.50 |  2:42.13 |     36050    |    48212   
        5  | 10:42.63 |  3:35.07 |     48213    |    64344   
        6  | 14:17.70 |  4:05.60 |     64345    |    82779   
        7  | 18:23.55 |  2:55.63 |     82780    |    95967   
        8  | 21:19.43 |  4:10.02 |     95968    |   114719   
        9  | 25:29.45 |  3:03.00 |    114720    |   128444   
       10  | 28:32.45 |  3:23.68 |    128445    |   143737   
       11  | 31:56.38 |  5:22.15 |    143738    |   167902   
       12  | 37:18.53 |  3:42.12 |    167903    |   184564   
       13  | 41:00.65 |  1:42.70 |    184565    |   192284   


Range status and errors

Selected range

     Filename C:Nirvana - 1989 - Bleach [Remastered]Nirvana - 1989 - Bleach [Remastered].wav

     Peak level 100.0 %
     Range quality 99.9 %
     Test CRC F14C5D66
     Copy CRC F14C5D66
     Copy OK

No errors occurred

 
AccurateRip summary
 
Track  1  not present in database
Track  2  not present in database
Track  3  not present in database
Track  4  not present in database
Track  5  not present in database
Track  6  not present in database
Track  7  not present in database
Track  8  not present in database
Track  9  not present in database
Track 10  not present in database
Track 11  not present in database
Track 12  not present in database
Track 13  not present in database
 
None of the tracks are present in the AccurateRip database

End of status report



[/size]





Nirvana Bleach (1989) Ape (Mg)
5 Puntos Score: 5/10
Visitas: 351 Favoritos: 1
Ver los usuarios que votaron...
4 Comentarios Nirvana Bleach (1989) Ape (Mg)
No tiene pass el rar? gracias por el aporte de esta fabulosa banda + 5 :-D
@lobazo79
No amigo no tiene pass, gracias por pasar  
Me habia ido sin dejar los puntines, jajaja! ahora si Dr
@lobazo79
Ja ja gracias por los puntos  
Para dejar un comentario Registrate! o.. eres ya usuario? Accede!