Oops.. Este post tiene los enlaces eliminados!

Identi revisa las denuncias de los usuarios en busca de enlaces eliminados que no dejan descargar los archivos, este mensaje te informa que este post que estas viendo tiene los enlaces eliminados.

Usa el Buscador

Por favor, te recomendamos que uses el buscador para encontrar más alternativas.

Guns N' Roses G N' R Lies (1988) Ape (Mg)

  • Categoría: Reciclaje
  • Publicado hace más de 3 años







Información:


Formato: Ape(image+.cue) + Log

Covers: En el rar

Año: 1988 (remasterizado en 2008)



Lista de canciones:


01. Reckless Life 03:21

02. Nice Boys 03:03


03. Move To The City 03:42


04. Mama Kin 03:57


05. Patience 05:56


06. Used To Love Her 03:13


07. You're Crazy [Acoustic Version] 04:10


08. One In A Million 06:10   





Log:

Exact Audio Copy V0.99 prebeta 5 from 4. May 2009

EAC extraction logfile from 7. September 2009, 17:36

Guns N' Roses / G N' R Lies

Used drive  : SAMSUNG CD-ROM SC-148A   Adapter: 1  ID: 1

Read mode               : Secure
Utilize accurate stream : Yes
Defeat audio cache      : Yes
Make use of C2 pointers : No

Read offset correction                      : 12
Overread into Lead-In and Lead-Out          : Yes
Fill up missing offset samples with silence : Yes
Delete leading and trailing silent blocks   : No
Null samples used in CRC calculations       : Yes
Used interface                              : Native Win32 interface for Win NT & 2000

Used output format : Internal WAV Routines
Sample format      : 44.100 Hz; 16 Bit; Stereo


TOC of the extracted CD

     Track |   Start  |  Length  | Start sector | End sector 
    ---------------------------------------------------------
        1  |  0:00.00 |  3:21.20 |         0    |    15094   
        2  |  3:21.20 |  3:03.42 |     15095    |    28861   
        3  |  6:24.62 |  3:42.55 |     28862    |    45566   
        4  | 10:07.42 |  3:57.08 |     45567    |    63349   
        5  | 14:04.50 |  5:56.22 |     63350    |    90071   
        6  | 20:00.72 |  3:13.08 |     90072    |   104554   
        7  | 23:14.05 |  4:10.12 |    104555    |   123316   
        8  | 27:24.17 |  6:10.45 |    123317    |   151111   


Range status and errors

Selected range

     Filename C:Guns N' Roses - 1988 - G N' R LiesGuns N' Roses - 1988 - G N' R Lies.wav

     Peak level 100.0 %
     Range quality 99.9 %
     Test CRC 017C32D3
     Copy CRC 017C32D3
     Copy OK

No errors occurred

 
AccurateRip summary
 
Track  1  cannot be verified as accurate (confidence 1)
Track  2  cannot be verified as accurate (confidence 1)
Track  3  cannot be verified as accurate (confidence 1)
Track  4  cannot be verified as accurate (confidence 1)
Track  5  cannot be verified as accurate (confidence 1)
Track  6  cannot be verified as accurate (confidence 1)
Track  7  cannot be verified as accurate (confidence 1)
Track  8  cannot be verified as accurate (confidence 1)
 
No tracks could be verified as accurate
You may have a different pressing from the one(s) in the database

End of status report



[/size]





Guns N' Roses G N' R Lies (1988) Ape (Mg)
5 Puntos Score: 5/10
Visitas: 598 Favoritos: 2
Ver los usuarios que votaron...
5 Comentarios Guns N' Roses G N' R Lies (1988) Ape (Mg)
Otro excelente aporte. Gracias por compartir. Larga vida al rock and roll.  
@albramar @JRHE
de nada solo sigue asi  
Guns n' Roses!!!!! yehaaa...
Para dejar un comentario Registrate! o.. eres ya usuario? Accede!