The Doors - Waiting For The Sun (1968)(Flac)(Mg)













Información:


Formato: Flac (image+.cue) + Log

Covers: En el rar

Año: 1968 (remasterizado en 2006)



Lista de canciones:


01. Hello, I Love You
02. Love Street" 
03. Not to Touch the Earth 
04. Summer's Almost Gone
05. Wintertime Love
06. The Unknown Soldier
07. Spanish Caravan
08. My Wild Love
09. We Could Be So Good Together
10. Yes, the River Knows 
11. Five to One
12. Albinoni's Adagio in G minor (Remo Giazotto) 
13. Not to Touch the Earth (Dialogue) 
14. Not to Touch the Earth (Take 1)
15. Not to Touch the Earth (Take 2)
16. Celebration of the Lizard" (An Experiment/Work in Progress) 



Log:


Exact Audio Copy V0.99 prebeta 3 from 28. July 2007

EAC extraction logfile from 28. September 2010, 19:27

The Doors / Perception Boxset 2006 (Disc 3 - Waiting For The Sun)

Used drive  : Optiarc DVD RW AD-7173S   Adapter: 3  ID: 0

Read mode               : Secure
Utilize accurate stream : Yes
Defeat audio cache      : Yes
Make use of C2 pointers : No

Read offset correction                      : 48
Overread into Lead-In and Lead-Out          : No
Fill up missing offset samples with silence : Yes
Delete leading and trailing silent blocks   : No
Null samples used in CRC calculations       : Yes
Used interface                              : Native Win32 interface for Win NT & 2000

Used output format : Internal WAV Routines
Sample format      : 44.100 Hz; 16 Bit; Stereo


TOC of the extracted CD

     Track |   Start  |  Length  | Start sector | End sector 
    ---------------------------------------------------------
        1  |  0:00.00 |  2:16.22 |         0    |    10221   
        2  |  2:16.22 |  2:52.25 |     10222    |    23146   
        3  |  5:08.47 |  3:55.34 |     23147    |    40805   
        4  |  9:04.06 |  3:22.03 |     40806    |    55958   
        5  | 12:26.09 |  1:54.04 |     55959    |    64512   
        6  | 14:20.13 |  3:25.25 |     64513    |    79912   
        7  | 17:45.38 |  2:59.41 |     79913    |    93378   
        8  | 20:45.04 |  2:52.41 |     93379    |   106319   
        9  | 23:37.45 |  2:24.21 |    106320    |   117140   
       10  | 26:01.66 |  2:37.51 |    117141    |   128966   
       11  | 28:39.42 |  4:28.21 |    128967    |   149087   
       12  | 33:07.63 |  4:33.00 |    149088    |   169562   
       13  | 37:40.63 |  0:39.11 |    169563    |   172498   
       14  | 38:19.74 |  4:03.25 |    172499    |   190748   
       15  | 42:23.24 |  4:17.47 |    190749    |   210070   
       16  | 46:40.71 | 17:06.74 |    210071    |   287094   


Range status and errors

Selected range

     Filename W:CDThe Doors (Perception Boxset CD3 - Waiting For The Sun 1968) 2006The Doors - Perception Boxset 2006 (Disc 3 - Waiting For The Sun).wav

     Peak level 100.0 %
     Range quality 100.0 %
     Test CRC 61793E1A
     Copy CRC 61793E1A
     Copy OK

No errors occurred

 
AccurateRip summary
 
Track  1  accurately ripped (confidence 35) A54C5763]
Track  4  accurately ripped (confidence 35) D2A41A39]
Track  7  accurately ripped (confidence 35) 3CA57941]
Track 10  accurately ripped (confidence 35) 761A0C0A]
Track 13  accurately ripped (confidence 34) 14FF5CC5]
Track 16  accurately ripped (confidence 33)



Contraseña: ellocoboni




The Doors - Waiting For The Sun (1968)(Flac)(Mg)
33 Puntos Score: 8.3/10
Visitas: 548 Favoritos: 2
Ver los usuarios que votaron...
6 Comentarios The Doors - Waiting For The Sun (1968)(Flac)(Mg)
Gracias. Segui asi capo
@R0BERTIT0
Gracias por pasar y por los puntos  
Para dejar un comentario Registrate! o.. eres ya usuario? Accede!