John Fogerty (1975)(Flac)(Mg)















Información:


Formato: Flac (image+.cue) + Log

Covers: En el rar

Año: 1975




Lista de canciones:


01. Rocking All over the World

02. You Raseal You

03. The Wall

04. Traveling High

05. Lonely Teardrops

06. Almost Saturday Night

07. Where the River Flows

08. Sea Cruise

09. Dream Song

10. Flying Away




Log:


Exact Audio Copy V0.99 prebeta 5 from 4. May 2009

Îò÷¸ò EAC îá èçâëå÷åíèè, âûïîëíåííîì 30. àïðåëÿ 2010, 19:50

Fogerty, John / John Fogerty

Äèñêîâîä: HL-DT-STDVDRAM GSA-T20N   Adapter: 1  ID: 0

Ðåæèì ÷òåíèÿ                 : Äîñòîâåðíîñòü
Èñïîëüçîâàíèå òî÷íîãî ïîòîêà : Äà
Îòêëþ÷åíèå êýøà àóäèî        : Äà
Èñïîëüçîâàíèå óêàçàòåëåé C2  : Íåò

Êîððåêöèÿ ñìåùåíèÿ ïðè ÷òåíèè                     : 667
Ñïîñîáíîñòü ÷èòàòü îáëàñòè Lead-in è Lead-out     : Íåò
Çàïîëíåíèå ïðîïóùåííûõ ñýìïëîâ òèøèíîé            : Äà
Óäàëåíèå áëîêîâ ñ òèøèíîé â íà÷àëå è êîíöå        : Íåò
Ïðè âû÷èñëåíèÿõ CRC èñïîëüçîâàëèñü íóëåâûå ñýìïëû : Äà
Èíòåðôåéñ                                         : Âñòðîåííûé Win32-èíòåðôåéñ äëÿ Win NT/2000

Âûõîäíîé ôîðìàò          : Ïîëüçîâàòåëüñêèé êîäèðîâùèê
Âûáðàííûé áèòðåéò        : 768 kBit/s
Êà÷åñòâî                 : Âûñîêèé
Äîáàâëåíèå ID3-òýãà      : Íåò
Óòèëèòà ñæàòèÿ           : C:Program FilesExact Audio CopyFLACFLAC.EXE
Äîïîëíèòåëüíûå ïàðàìåòðû : -8 -V %s


TOC èçâëå÷¸ííîãî CD

     Òðåê |   Ñòàðò  | Äëèòåëüíîñòü | Íà÷àëüíûé ñåêòîð | Êîíå÷íûé ñåêòîð 
    ---------------------------------------------------------------------
       1  |  0:00.00 |    2:48.72   |           0      |      12671      
       2  |  2:48.72 |    2:39.65   |       12672      |      24661      
       3  |  5:28.62 |    2:54.48   |       24662      |      37759      
       4  |  8:23.35 |    3:14.72   |       37760      |      52381      
       5  | 11:38.32 |    4:23.28   |       52382      |      72134      
       6  | 16:01.60 |    2:27.15   |       72135      |      83174      
       7  | 18:29.00 |    2:28.40   |       83175      |      94314      
       8  | 20:57.40 |    3:09.60   |       94315      |     108549      
       9  | 24:07.25 |    3:08.00   |      108550      |     122649      
      10  | 27:15.25 |    4:19.30   |      122650      |     142104      


Õàðàêòåðèñòèêè äèàïàçîíà èçâëå÷åíèÿ è ñîîáùåíèÿ îá îøèáêàõ

Âûáðàííûé äèàïàçîí

     Èìÿ ôàéëà D:uTorrent.complJohn Fogerty - 'John Fogerty' 1975 ( 1st press CDFA 507 )Fogerty, John - John Fogerty.wav

     Ïèêîâûé óðîâåíü 87.9 %
     Êà÷åñòâî äèàïàçîíà 100.0 %
     CRC òåñòà 9155485F
     CRC êîïèè 9155485F
     Êîïèðîâàíèå... OK

Îøèáîê íå ïðîèçîøëî

 
AccurateRip: ñâîäêà
 
Òðåê  1  òî÷íîå èçâëå÷åíèå (äîâåðèå 2) 894947E3]
Òðåê  4  òî÷íîå èçâëå÷åíèå (äîâåðèå 2) F679516C]
Òðåê  7  òî÷íîå èçâëå÷åíèå (äîâåðèå 2) 7233BB85]
Òðåê 10  òî÷íîå èçâëå÷åíèå (äîâåðèå 2)




Contraseña: ellocoboni





John Fogerty (1975)(Flac)(Mg)
10 Puntos Score: 10/10
Visitas: 377 Favoritos: 0
Ver los usuarios que votaron...
2 Comentarios John Fogerty (1975)(Flac)(Mg)
@R0BERTIT0
Gracias por pasar amigo y por los puntos  
Para dejar un comentario Registrate! o.. eres ya usuario? Accede!