The Doors - Strange Days (1967)(Flac)(Mg)








Información:


Formato: Flac (image+.cue) + Log

Covers: En el rar

Año: 1967 (remasterizado en 2006)



Lista de canciones:

01. Strange Days
02. You're Lost Little Girl
03. Love Me Two Times
04. Unhappy Girl
05. Horse Latitudes
06. Moonlight Drive
07. People Are Strange
08. My Eyes Have Seen You
09. I Can't See Your Face in My Mind
10. When the Music's Over
11. People Are Strange (False Starts & Dialogue) 
12. Love Me Two Times (Take 3)




Log:

Exact Audio Copy V0.99 prebeta 3 from 28. July 2007

EAC extraction logfile from 28. September 2010, 14:01

The Doors / Perception Boxset 2006 (Disc 2 - Strange Days)

Used drive  : Optiarc DVD RW AD-7173S   Adapter: 3  ID: 0

Read mode               : Secure
Utilize accurate stream : Yes
Defeat audio cache      : Yes
Make use of C2 pointers : No

Read offset correction                      : 48
Overread into Lead-In and Lead-Out          : No
Fill up missing offset samples with silence : Yes
Delete leading and trailing silent blocks   : No
Null samples used in CRC calculations       : Yes
Used interface                              : Native Win32 interface for Win NT & 2000

Used output format : Internal WAV Routines
Sample format      : 44.100 Hz; 16 Bit; Stereo


TOC of the extracted CD

     Track |   Start  |  Length  | Start sector | End sector 
    ---------------------------------------------------------
        1  |  0:00.00 |  3:09.22 |         0    |    14196   
        2  |  3:09.22 |  3:03.16 |     14197    |    27937   
        3  |  6:12.38 |  3:16.66 |     27938    |    42703   
        4  |  9:29.29 |  2:00.17 |     42704    |    51720   
        5  | 11:29.46 |  1:35.10 |     51721    |    58855   
        6  | 13:04.56 |  3:04.06 |     58856    |    72661   
        7  | 16:08.62 |  2:12.25 |     72662    |    82586   
        8  | 18:21.12 |  2:29.50 |     82587    |    93811   
        9  | 20:50.62 |  3:26.70 |     93812    |   109331   
       10  | 24:17.57 | 11:00.01 |    109332    |   158832   
       11  | 35:17.58 |  1:58.08 |    158833    |   167690   
       12  | 37:15.66 |  3:19.45 |    167691    |   182660   


Range status and errors

Selected range

     Filename W:CDThe Doors (Perception Boxset CD2 - Strange Days 1967) 2006The Doors - Perception Boxset 2006 (Disc 2 - Strange Days).wav

     Peak level 98.9 %
     Range quality 99.8 %
     Test CRC ABCCB07A
     Copy CRC ABCCB07A
     Copy OK

No errors occurred

 
AccurateRip summary
 
Track  1  accurately ripped (confidence 113)
Track  2  accurately ripped (confidence 114)
Track  3  accurately ripped (confidence 114)
Track  4  accurately ripped (confidence 114)
Track  5  accurately ripped (confidence 116)
Track  6  accurately ripped (confidence 114)
Track  7  accurately ripped (confidence 115)
Track  8  accurately ripped (confidence 114)
Track  9  accurately ripped (confidence 114)
Track 10  accurately ripped (confidence 116)
Track 11  accurately ripped (confidence 113)
Track 12  accurately ripped (confidence 110)
 
All tracks accurately ripped

End of status report






Contraseña: ellocoboni




The Doors - Strange Days (1967)(Flac)(Mg)
30 Puntos Score: 10/10
Visitas: 704 Favoritos: 2
Ver los usuarios que votaron...
7 Comentarios The Doors - Strange Days (1967)(Flac)(Mg)
Excelente aporte. Gracias por compartir. Larga vida al rock and roll.  
Gracias x compartir
@albramar
Gracias por pasar  

@R0BERTIT0
Gracias por pasar y por los puntos  
muchas gracias. Un muy buen aporte!!
:, agradecido compaaaaaaaaaaaaaaaaaaaaaaaaaaaaaaaaaaaa!!! wena
Para dejar un comentario Registrate! o.. eres ya usuario? Accede!