John Fogerty - Blue Ridge Rangers (1973)(Flac)













Información:


Formato: Flac (image+.cue) + Log

Covers: En el rar

Año: 1973 (remasterizado en 1991)



Lista de canciones:


01. Blue Ridge Mountain Blues

02. Somewhere Listening (For My Name)

03. You're the Reason

04. Jambalaya (On the Bayou)

05. She Thinks I Still Care

06. California Blues (Blue Yodel #4)

07. Workin' on a Building

08. Please Help Me, I'm Falling

09. Have Thine Own Way, Lord

10. I Ain't Never

11. Hearts of Stone

12. Today I Started Loving You Again




Log:

Exact Audio Copy V0.99 prebeta 4 from 23. January 2008

EAC extraction logfile from 19. April 2008, 23:33

John Fogerty / The Blue Ridge Rangers

Used drive  : PLEXTOR CD-R   PREMIUM2   Adapter: 1  ID: 0

Read mode               : Secure
Utilize accurate stream : Yes
Defeat audio cache      : Yes
Make use of C2 pointers : No

Read offset correction                      : 30
Overread into Lead-In and Lead-Out          : Yes
Fill up missing offset samples with silence : Yes
Delete leading and trailing silent blocks   : No
Null samples used in CRC calculations       : Yes
Used interface                              : Native Win32 interface for Win NT & 2000

Used output format              : User Defined Encoder
Selected bitrate                : 320 kBit/s
Quality                         : High
Add ID3 tag                     : No
Command line compressor         : C:ProgramFLACflac.exe
Additional command line options : -8 -V -T "artist=%a" -T "title=%t" -T "album=%g" -T "date=%y" -T "tracknumber=%n" -T "genre=%m" %s


TOC of the extracted CD

     Track |   Start  |  Length  | Start sector | End sector 
    ---------------------------------------------------------
        1  |  0:00.00 |  2:32.17 |         0    |    11416   
        2  |  2:32.17 |  2:41.13 |     11417    |    23504   
        3  |  5:13.30 |  3:14.65 |     23505    |    38119   
        4  |  8:28.20 |  3:17.57 |     38120    |    52951   
        5  | 11:46.02 |  3:00.48 |     52952    |    66499   
        6  | 14:46.50 |  3:06.62 |     66500    |    80511   
        7  | 17:53.37 |  4:38.58 |     80512    |   101419   
        8  | 22:32.20 |  2:52.50 |    101420    |   114369   
        9  | 25:24.70 |  3:01.20 |    114370    |   127964   
       10  | 28:26.15 |  2:53.12 |    127965    |   140951   
       11  | 31:19.27 |  2:14.00 |    140952    |   151001   
       12  | 33:33.27 |  3:12.51 |    151002    |   165452   


Range status and errors

Selected range

     Filename L:FLACJohn Fogerty - The Blue Ridge Rangers.wav

     Peak level 99.9 %
     Range quality 100.0 %
     Test CRC 5BA5AED2
     Copy CRC 5BA5AED2
     Copy OK

No errors occurred

 
AccurateRip summary
 
Track  1  not present in database
Track  2  not present in database
Track  3  not present in database
Track  4  not present in database
Track  5  not present in database
Track  6  not present in database
Track  7  not present in database
Track  8  not present in database
Track  9  not present in database
Track 10  not present in database
Track 11  not present in database
Track 12  not present in database
 
None of the tracks are present in the AccurateRip database

End of status report









Contraseña: ellocoboni





John Fogerty - Blue Ridge Rangers (1973)(Flac)
20 Puntos Score: 10/10
Visitas: 465 Favoritos: 0
Ver los usuarios que votaron...
4 Comentarios John Fogerty - Blue Ridge Rangers (1973)(Flac)
No sabia que sac?
@HHJack
Gracias a vos por pasar y comentar  
@R0BERTIT0
Gracias por pasar y por los puntos amigo  
Para dejar un comentario Registrate! o.. eres ya usuario? Accede!