The Doors - The Doors (1967)(Flac)(Mg)










Información:


Formato: Flac (image+.cue) + Log

Covers: En el rar

Año: 1967 (remasterizado en 2006)



Lista de canciones:

01. Break on Through (To the Other Side)
02. Soul Kitchen
03. The Crystal Ship
04. Twentieth Century Fox
05. Alabama Song (Whiskey Bar) (Bertolt Brecht, Kurt Weil)
06. Light My Fire
07. Back Door Man (Willie Dixon)
08. I Looked at You
09. End of the Night
10. Take It as It Comes
11. The End
12. Moonlight Drive (Version 1, recorded 1966) 
13. Moonlight Drive (Version 2, recorded 1966) 
14. Indian Summer (Vocal Version, recorded August 19, 1966)




Log:


Exact Audio Copy V0.99 prebeta 3 from 28. July 2007


EAC extraction logfile from 25. September 2010, 13:29


The Doors / Perception Boxset 2006 (Disc 1 - The Doors)


Used drive  : Optiarc DVD RW AD-7173S   Adapter: 3  ID: 0


Read mode               : Secure

Utilize accurate stream : Yes

Defeat audio cache      : Yes

Make use of C2 pointers : No


Read offset correction                      : 48

Overread into Lead-In and Lead-Out          : No

Fill up missing offset samples with silence : Yes

Delete leading and trailing silent blocks   : No

Null samples used in CRC calculations       : Yes

Used interface                              : Native Win32 interface for Win NT & 2000


Used output format : Internal WAV Routines

Sample format      : 44.100 Hz; 16 Bit; Stereo



TOC of the extracted CD


     Track |   Start  |  Length  | Start sector | End sector 

    ---------------------------------------------------------

        1  |  0:00.00 |  2:29.09 |         0    |    11183   

        2  |  2:29.09 |  3:35.06 |     11184    |    27314   

        3  |  6:04.15 |  2:34.60 |     27315    |    38924   

        4  |  8:39.00 |  2:33.67 |     38925    |    50466   

        5  | 11:12.67 |  3:20.01 |     50467    |    65467   

        6  | 14:32.68 |  7:08.36 |     65468    |    97603   

        7  | 21:41.29 |  3:34.12 |     97604    |   113665   

        8  | 25:15.41 |  2:22.02 |    113666    |   124317   

        9  | 27:37.43 |  2:52.48 |    124318    |   137265   

       10  | 30:30.16 |  2:17.03 |    137266    |   147543   

       11  | 32:47.19 | 11:45.35 |    147544    |   200453   

       12  | 44:32.54 |  2:43.27 |    200454    |   212705   

       13  | 47:16.06 |  2:30.43 |    212706    |   223998   

       14  | 49:46.49 |  2:36.38 |    223999    |   235736   



Range status and errors


Selected range


     Filename W:CDThe Doors - Perception Boxset 2006 (Disc 1 - The Doors).wav


     Peak level 100.0 %

     Range quality 100.0 %

     Test CRC A4537A2A

     Copy CRC A4537A2A

     Copy OK


No errors occurred


 

AccurateRip summary

 

Track  1  accurately ripped (confidence 37)

Track  2  accurately ripped (confidence 37)

Track  3  accurately ripped (confidence 37)

Track  4  accurately ripped (confidence 37)

Track  5  accurately ripped (confidence 38)

Track  6  accurately ripped (confidence 37)

Track  7  accurately ripped (confidence 38)

Track  8  accurately ripped (confidence 38)

Track  9  accurately ripped (confidence 37)

Track 10  accurately ripped (confidence 37)

Track 11  accurately ripped (confidence 36)

Track 12  accurately ripped (confidence 37)

Track 13  accurately ripped (confidence 37)

Track 14  accurately ripped (confidence 3)

 

All tracks accurately ripped


End of status report







Contraseña: ellocoboni




The Doors - The Doors (1967)(Flac)(Mg)
30 Puntos Score: 10/10
Visitas: 842 Favoritos: 2
Ver los usuarios que votaron...
6 Comentarios The Doors - The Doors (1967)(Flac)(Mg)
Un disco muy bueno, gracias x compartirlo
Si lo tenes completo (Perception Boxset 2006) y lo podes subir de a poco te iria dejando puntos. Saludos
@R0BERTIT0
Gracias por pasar amigo y por los puntos  
@R0BERTIT0
Si voy a subir los 6 discos de a poco, saludos
Para dejar un comentario Registrate! o.. eres ya usuario? Accede!