Oops.. Este post tiene los enlaces eliminados!

Identi revisa las denuncias de los usuarios en busca de enlaces eliminados que no dejan descargar los archivos, este mensaje te informa que este post que estas viendo tiene los enlaces eliminados.

Usa el Buscador

Por favor, te recomendamos que uses el buscador para encontrar más alternativas.

Helloween & Kai Hansen Rock in Rio 2013 (BU)

  • Categoría: Reciclaje
  • Publicado hace más de 3 años






HELLOWEEN & KAI HANSEN

Rock in Rio - 2013

Power Metal


Alemania
Rock in Rio 2013 acaba de anunciar que Helloween Kai Hansen + estará jugando juntos en el escenario Sunset. El escenario Sunset difiere del escenario principal, ya que está lleno de encuentros inesperados entre los grandes nombres de la música y los nuevos artistas nacionales e internacionales. El estadio recibirá a artistas de rock, hip hop, pop, soul, el punk, el heavy metal, samba y MPB (Música Popular Brasileña)


01. Eagle Fly Free
02. Where the Sinners Go 
03. Waiting for the Thunder 
04. I'm Alive
05. Live Now!
06. If I Could Fly
07. Power
08. Are You Metal? 
09. Dr. Stein (with Kai Hansen)
10. Future World (with Kai Hansen)
11. I Want Out (with Kai Hansen)










General
Format                                   : MPEG-4
Format profile                           : Base Media / Version 2
Codec ID                                 : mp42
File size                                : 1.23 GiB
Duration                                 : 58mn 17s
Overall bit rate mode                    : Variable
Overall bit rate                         : 3 027 Kbps

Video
ID                                       : 1
Format                                   : AVC
Format/Info                              : Advanced Video Codec
Format profile                           : [email protected]
Format settings, CABAC                   : Yes
Format settings, ReFrames                : 1 frame
Format settings, GOP                     : M=1, N=60
Codec ID                                 : avc1
Codec ID/Info                            : Advanced Video Coding
Duration                                 : 58mn 17s
Bit rate                                 : 2 832 Kbps
Maximum bit rate                         : 6 732 Kbps
Width                                    : 1 280 pixels
Height                                   : 720 pixels
Display aspect ratio                     : 16:9
Frame rate mode                          : Constant
Frame rate                               : 29.970 fps
Color space                              : YUV
Chroma subsampling                       : 4:2:0
Bit depth                                : 8 bits
Scan type                                : Progressive
Bits/(Pixel*Frame)                       : 0.103
Stream size                              : 1.15 GiB (94%)


Audio
ID                                       : 2
Format                                   : AAC
Format/Info                              : Advanced Audio Codec
Format profile                           : LC
Codec ID                                 : 40
Duration                                 : 58mn 17s
Bit rate mode                            : Variable
Bit rate                                 : 192 Kbps
Maximum bit rate                         : 201 Kbps
Channel count                            : 2 channels
Channel positions                        : Front: L R
Sampling rate                            : 44.1 KHz
Compression mode                         : Lossy
Stream size                              : 80.0 MiB (6%)













Helloween & Kai Hansen Rock in Rio 2013 (BU)
15 Puntos Score: 7.5/10
Visitas: 1378 Favoritos: 3
Ver los usuarios que votaron...
7 Comentarios Helloween & Kai Hansen Rock in Rio 2013 (BU)
Genial  , buen aporte  
Excelente lo tuyo!
Estaba bajando y pumm desapareci?
Muchas gracias  
la mi vieja oye como se descarga
es arto diferente
uu esta bkn pero nose como bajarlo
excelente aporte men este dvd no lo tengo   + 5

pasate por mi post seguro te gustara
Para dejar un comentario Registrate! o.. eres ya usuario? Accede!