Iron Maiden The Beast in Milan Rareza (BU)





01. The Number Of The Beast

02. Prowler

03. Transylvania

04. Remember Tomorrow

05. 2 Minutes To Midnight

06. From Here To Eternity

07. Wasting Love

08. Bring Your Daughter...To The Slaughter

09. Afraid To Shoot Strangers

10. The Clairvoyant

11. Heaven Can Wait

12. Run To The Hills

13. Iron Maiden




Format                                   : Matroska
Format version                           : Version 2
File size                                : 522 MiB
Duration                                 : 1h 6mn
Overall bit rate                         : 1 096 Kbps
Writing application                      : Lavf51.12.1
Writing library                          : Lavf51.12.1

Video
ID                                       : 1
Format                                   : AVC
Format/Info                              : Advanced Video Codec
Format profile                           : [email protected]
Format settings, CABAC                   : No
Format settings, ReFrames                : 1 frame
Format settings, GOP                     : M=1, N=12
Codec ID                                 : V_MPEG4/ISO/AVC
Duration                                 : 1h 6mn
Bit rate                                 : 754 Kbps
Width                                    : 480 pixels
Height                                   : 360 pixels
Display aspect ratio                     : 4:3
Frame rate mode                          : Constant
Frame rate                               : 30.000 fps
Color space                              : YUV
Chroma subsampling                       : 4:2:0
Bit depth                                : 8 bits
Scan type                                : Progressive
Bits/(Pixel*Frame)                       : 0.146
Stream size                              : 360 MiB (69%)
Default                                  : Yes
Forced                                   : No

Audio
ID                                       : 2
Format                                   : MPEG Audio
Format version                           : Version 1
Format profile                           : Layer 2
Codec ID                                 : A_MPEG/L2
Codec ID/Hint                            : MP2
Duration                                 : 1h 6mn
Bit rate mode                            : Constant
Bit rate                                 : 320 Kbps
Channel count                            : 2 channels
Sampling rate                            : 44.1 KHz
Compression mode                         : Lossy
Stream size                              : 153 MiB (29%)
Default                                  : Yes
Forced                                   : No










Iron Maiden The Beast in Milan Rareza (BU)
30 Puntos Score: 10/10
Visitas: 1292 Favoritos: 7
Ver los usuarios que votaron...
5 Comentarios Iron Maiden The Beast in Milan Rareza (BU)
Cita lupino_: Mostrar
@sawadypap
Cita Leopulga: Mostrar
Cita NmLCygni: Mostrar
Graciassss  
Para dejar un comentario Registrate! o.. eres ya usuario? Accede!