Kick-Ass 2 [Español] BluRay Screener 2013 .avi



Kick-Ass 2 con un par
[Español Castellano]
[BluRay Screener]AVI



Kick-Ass y Hit Girl regresan en ?Kick-Ass 2, con un par?. La joven asesina Hit Girl y el patrullero Kick-Ass intentaban llevar la típica vida normal de dos adolescentes llamados Mindy y Dave. Pero al acercarse el momento de graduarse en el Instituto, y ante un futuro incierto, Dave decide crear con Mindy el primer equipo de superhéroes. Por desgracia, cuando pillan a Mindy saliendo como Hit Girl, se ve obligada a retirarse momentáneamente. Dave no puede contar con su amiga y se une al grupo Justice Forever, dirigido por el coronel Barras y Estrellas. Pero El Hijop**a, antes Bruma Roja, decide que ha llegado la hora de vengarse por lo que le hicieron a su padre.


Formato : Avi
Resolucion: 720x340
Calidad: Muy Buena
Duración : 1h 41min.
Servidor: Mega
Tamaño del archivo : 1,48 Gib
7 archivos de 204mb y 1 de 109mb

INFO MEDIA:
Format                                   : AVI
Format/Info                            : Audio Video Interleave
File size                                 : 1.48 GiB
Duration                                 : 1h 41mn
Overall bit rate                        : 2 089 Kbps
Writing application                   : VirtualDubMod 1.5.10.2 (build 2540/release)
Writing library                          : VirtualDubMod build 2540/release

Video
ID                                       : 0
Format                                : MPEG-4 Visual
Format profile                       : Advanced [email protected]
Format settings, BVOP           : 2
Format settings, QPel             : No
Format settings, GMC             : No warppoints
Format settings, Matrix           : Default (H.263)
Codec ID                               : XVID
Codec ID/Hint                        : XviD
Duration                                : 1h 41mn
Bit rate                                 : 1 887 Kbps
Width                                    : 720 pixels
Height                                   : 304 pixels
Display aspect ratio                 : 2.35:1
Frame rate                             : 23.976 fps
Color space                            : YUV
Chroma subsampling                       : 4:2:0
Bit depth                                : 8 bits
Scan type                               : Progressive
Compression mode                 : Lossy
Bits/(Pixel*Frame)                  : 0.360
Stream size                            : 1.34 GiB (90%)
Writing library                         : XviD 1.2.1 (UTC 2008-12-04)

Audio
ID                                       : 1
Format                                : MPEG Audio
Format version                      : Version 1
Format profile                       : Layer 3
Codec ID                              : 55
Codec ID/Hint                       : MP3
Duration                               : 1h 41mn
Bit rate mode                        : Constant
Bit rate                                 : 192 Kbps
Channel(s)                            : 2 channels
Sampling rate                        : 44.1 KHz
Compression mode                : Lossy
Stream size                           : 139 MiB (9%)
Alignment                             : Split accross interleaves
Interleave, duration                : 42 ms (1.00 video frame)
Interleave, preload duration     : 500 ms
[/left]







Enlaces De Descarga








  









Kick-Ass 2 [Español] BluRay Screener 2013 .avi
0 Puntos Score: 0/10
Visitas: 5132 Favoritos: 0
16 Comentarios Kick-Ass 2 [Español] BluRay Screener 2013 .avi
como 3 links caidos :C
@darkallan Revisando, creo que es problema de Mega, porque yo los veo en mi cuenta de Mega, con todo ya los estoy arreglando  
amigo como es la contrase?
Los archivos estan todos online, mega tiene problemas en estos momentos!! Revisado
Solo vuelvan a intentar descargar archivo por archivo.  
Oie crees que salga en Audio latino despues????
@lamperouge Si amigo, solo hay que esperar un poco m?
Axy44 o alguien que ya la vio el audio castellano se escucha bien??? garcias.
@russell09 si se escucha bien, no es audio Cam si a eso te refieres, ahi arriba esta la Info del Audio,  
genial muchas gracias  
Amigos la acabo de descargar y ver la calidad y sonido  ----Excelenteee....Yo soy Argentino y el castellano lo rechazamos porque no se les entiende bien...pero en esta peli se entiende todo muy bien..
No te puedo dar puntos, pero gracias por el aporte. Se ve y se oye a la perfecci?
gran gran !! aporte jejeje no  sabes cuanto  estaba esperando  esta pelicula!!! miles d graxiaz no t doy puntos xq no tengo ya  soy nuevo  en  esto pero te daria  los maximos !!!
Para dejar un comentario Registrate! o.. eres ya usuario? Accede!