Anvil The Story of Anvil (4S)




Anvil, El sueño de una banda de rock es el conmovedor e inspirador relato de dos amigos 'Lips' Kudlow y Robb Reiner quienes a los 14 años se prometieron triunfar como grupo y permanecer juntos para siempre. Así surge Anvil, una banda de heavy canadiense que ha compartido escenario e influenciado a bandas tan míticas como Metallica, Slayer o Ántrax. Cuarenta años después de realizarse esa promesa siguen luchando para ver realizado su sueño. El realizador Sacha Gervasi sigue al grupo durante su gira europea y la grabación de su decimotercer álbum, mostrándonos su lado más humano.







Título: Anvil! The Story of Anvil

Año: 2008

Duración:    90 min.

País: Canada

Director: Sacha Gervasi

Premios: 2009: Premios Independent Spirit: Mejor documental

2009: Nominada a Critics' Choice Awards: Mejor documental

Género: Documental | Documental sobre música



 Nota usar 7 ZIP PARA DESCOMPRIMIR SALUDOS 


Format/Info                      : Audio Video Interleave
File size                        : 701 MiB
Duration                         : 1h 21mn
Overall bit rate                 : 1 199 Kbps
Writing application              : Nandub v1.0rc2
Writing library                  : Nandub build 1852/release

Video
ID                               : 0
Format                           : MPEG-4 Visual
Format profile                   : Advanced [email protected]
Format settings, BVOP            : 2
Format settings, QPel            : No
Format settings, GMC             : No warppoints
Format settings, Matrix          : Default (H.263)
Codec ID                         : XVID
Codec ID/Hint                    : XviD
Duration                         : 1h 21mn
Bit rate                         : 1 024 Kbps
Width                            : 608 pixels
Height                           : 336 pixels
Display aspect ratio             : 16:9
Frame rate                       : 29.970 fps
Color space                      : YUV
Chroma subsampling               : 4:2:0
Bit depth                        : 8 bits
Scan type                        : Progressive
Compression mode                 : Lossy
Bits/(Pixel*Frame)               : 0.167
Stream size                      : 599 MiB (85%)


Audio
ID                               : 1
Format                           : MPEG Audio
Format version                   : Version 1
Format profile                   : Layer 3
Mode                             : Joint stereo
Mode extension                   : MS Stereo
Codec ID                         : 55
Codec ID/Hint                    : MP3
Duration                         : 1h 21mn
Bit rate mode                    : Variable
Bit rate                         : 160 Kbps
Channel(s)                       : 2 channels
Sampling rate                    : 48.0 KHz
Compression mode                 : Lossy
Delay relative to video          : 984ms
Stream size                      : 93.9 MiB (13%)
Alignment                        : Split accross interleaves
Interleave, duration             : 24 ms (0.72 video frame)
Interleave, preload duration     : 1148 ms
Writing library                  : LAME3.90.




Anvil The Story of Anvil (4S)
30 Puntos Score: 10/10
Visitas: 618 Favoritos: 0
Ver los usuarios que votaron...
5 Comentarios Anvil The Story of Anvil (4S)
no la descargo porque ya la tengo, pero la recomiendo, yo solo esperaba ver un documental superfluo y musica nada mas, pero me encontre con mucho mas que eso, el realizador de este pedaso de historia plasmo muy bien la humanidad de este grupo de amigos, su vida cotidiana, sus trabajos y la perseverancia de un sue?
me recuerdo que cuando la vi senti una impotecia wn. era rabia ctm.
pero saque algo de ellos espero que cuando tenga la misma edad de ellos seguir con la misma pasion en el metal wn.
@shadowlord si en efecto no es de esas clasicas historias de excesos de grupillos malos que derrochan toto y al final se quedan sin nada sin ser las grandes bandas ni dejar nada a la musica
la vi por cable y la recomiendo, muy buen documental  
Para dejar un comentario Registrate! o.. eres ya usuario? Accede!