Get Thrashed la historia del Thrash metal Sub (4S)




?GET THRASHED ? THE HISTORY OF THRASH METAL?, es un documental que vale oro, pues cuenta por sus propios protagonistas el crecimiento, extensión, muerte temporal y renacimiento del thrash metal en el mundo, en este documento puedes ver a personajes como Mille Petroza, Gene Hoglan, Kerry King, Gary Holt y Chuck Billy entre otros contar sus historia de como era la movida, las bandas, el ambiente y la experiencia de ser pioneros en una música que mantuvo grande al heavy metal en la década de los ochentas.
?Get thrashed? debería ser materia obligatoria en la educación secundaria universal, ya que te hace viajar en el tiempo mostrándote como eran las cosas en 1988, vainas que yo viví en carne propia pero que muchos headbangers de la actualidad se perdieron sencillamente por nacer en la época equivocada, mas alla de mostrar el pasado esta película nos deja ver hacia donde va la música que tomó al thrash como inspiración, definitivamente un filme obligatorio para cualquier fan serio de la música dura.

Les dejo unas capturas de este humilde aporte mio ripeado 100% por mi hasta luego;)
















Format                           : MPEG-4
Format profile                   : Base Media / Version 2
Codec ID                         : mp42
File size                        : 775 MiB
Duration                         : 1h 39mn
Overall bit rate                 : 1 084 Kbps


Video
ID                               : 1
Format                           : AVC
Format/Info                      : Advanced Video Codec
Format profile                   : [email protected]
Format settings, CABAC           : No
Format settings, ReFrames        : 1 frame
Codec ID                         : avc1
Codec ID/Info                    : Advanced Video Coding
Duration                         : 1h 39mn
Bit rate mode                    : Variable
Bit rate                         : 957 Kbps
Width                            : 720 pixels
Height                           : 480 pixels
Display aspect ratio             : 3:2
Frame rate mode                  : Constant
Frame rate                       : 25.000 fps
Standard                         : NTSC
Color space                      : YUV
Chroma subsampling               : 4:2:0
Bit depth                        : 8 bits
Scan type                        : Progressive
Bits/(Pixel*Frame)               : 0.111
Stream size                      : 684 MiB (88%)


Audio
ID                               : 2
Format                           : AAC
Format/Info                      : Advanced Audio Codec
Format profile                   : LC
Codec ID                         : 40
Duration                         : 1h 39mn
Bit rate mode                    : Variable
Bit rate                         : 126 Kbps
Maximum bit rate                 : 271 Kbps
Channel(s)                       : 2 channels
Channel positions                : Front: L R
Sampling rate                    : 44.1 KHz
Compression mode                 : Lossy
Stream size                      : 89.8 MiB (12%)





Get Thrashed la historia del Thrash metal Sub (4S)
54 Puntos Score: 9/10
Visitas: 1267 Favoritos: 2
Ver los usuarios que votaron...
8 Comentarios Get Thrashed la historia del Thrash metal Sub (4S)
Exceletente aporte bajando...
Saludos
APORTAZO PA LOS MMETALEROS, WE BROTHERS OF METAL THAT HATE THE WORLD!!!!
ESPEREMOS JUNTOS EL APOCALPSIS DISFRUNTANDO DEL MEJOR METAL DEL MUNDO!!
muy buen sporte... aguante el metal
lo buscaba have  rato gracias viejoooooooooo  
Gracias   saludos  
Para dejar un comentario Registrate! o.. eres ya usuario? Accede!