Oops.. Este post tiene los enlaces eliminados!

Identi revisa las denuncias de los usuarios en busca de enlaces eliminados que no dejan descargar los archivos, este mensaje te informa que este post que estas viendo tiene los enlaces eliminados.

Usa el Buscador

Por favor, te recomendamos que uses el buscador para encontrar más alternativas.

Joya Scorpions World Wide Live (BU)

  • Categoría: Reciclaje
  • Publicado hace más de 3 años







Format                                   : AVI
Format/Info                              : Audio Video Interleave
File size                                : 700 MiB
Duration                                 : 58mn 8s
Overall bit rate mode                    : Variable
Overall bit rate                         : 1 682 Kbps
Writing application                      : VirtualDubMod 1.5.4.1 (build 2178/release)
Writing library                          : VirtualDubMod build 2178/release

Video
ID                                       : 0
Format                                   : MPEG-4 Visual
Format profile                           : Advanced [email protected]
Format settings, BVOP                    : 1
Format settings, QPel                    : No
Format settings, GMC                     : No warppoints
Format settings, Matrix                  : Custom
Codec ID                                 : XVID
Codec ID/Hint                            : XviD
Duration                                 : 58mn 8s
Bit rate                                 : 1 536 Kbps
Width                                    : 720 pixels
Height                                   : 544 pixels
Display aspect ratio                     : 4:3
Frame rate                               : 23.976 fps
Color space                              : YUV
Chroma subsampling                       : 4:2:0
Bit depth                                : 8 bits
Scan type                                : Progressive
Compression mode                         : Lossy
Bits/(Pixel*Frame)                       : 0.164
Stream size                              : 639 MiB (91%)


Audio
ID                                       : 1
Format                                   : MPEG Audio
Format version                           : Version 1
Format profile                           : Layer 3
Mode                                     : Joint stereo
Mode extension                           : MS Stereo
Codec ID                                 : 55
Codec ID/Hint                            : MP3
Duration                                 : 58mn 8s
Bit rate mode                            : Variable
Bit rate                                 : 133 Kbps
Nominal bit rate                         : 144 Kbps
Channel count                            : 2 channels
Sampling rate                            : 48.0 KHz
Compression mode                         : Lossy
Stream size                              : 55.4 MiB (8%)
Alignment                                : Aligned on interleaves
Interleave, duration                     : 24 ms (0.58 video frame)
Interleave, preload duration             : 536 ms
Writing library                          : LAME3.98r




















Joya Scorpions World Wide Live (BU)
0 Puntos Score: 0/10
Visitas: 727 Favoritos: 0
5 Comentarios Joya Scorpions World Wide Live (BU)
No tendras algo delos 70s cuando estaba Ulrich Roth??
videos obviamente
@SERATIN Uli Jon Roth diras uuhm vere dejame buscar me anime a postear esto aunque es raro  que a alguien le guste
como haces para descargar el avi???!!!!
 
Para dejar un comentario Registrate! o.. eres ya usuario? Accede!