Grave Digger The Clans Are Still Marching (BU)



Format                           : MPEG-4
Codec ID                         : M4V 
File size                        : 738 MiB
Duration                         : 1h 17mn
Overall bit rate                 : 1 328 Kbps
Writing library                  : AVS 

Video
ID                               : 1
Format                           : AVC
Format/Info                      : Advanced Video Codec
Format profile                   : [email protected]
Format settings, CABAC           : Yes
Format settings, ReFrames        : 2 frames
Codec ID                         : avc1
Codec ID/Info                    : Advanced Video Coding
Duration                         : 1h 17mn
Bit rate mode                    : Variable
Bit rate                         : 1 197 Kbps
Width                            : 656 pixels
Height                           : 368 pixels
Display aspect ratio             : 16:9
Frame rate mode                  : Constant
Frame rate                       : 23.976 fps
Color space                      : YUV
Chroma subsampling               : 4:2:0
Bit depth                        : 8 bits
Scan type                        : Progressive
Bits/(Pixel*Frame)               : 0.207
Stream size                      : 665 MiB (90%)


Audio
ID                               : 2
Format                           : AAC
Format/Info                      : Advanced Audio Codec
Format profile                   : LC
Codec ID                         : 40
Duration                         : 1h 17mn
Bit rate mode                    : Constant
Bit rate                         : 125 Kbps
Nominal bit rate                 : 112 Kbps
Channel(s)                       : 2 channels
Channel positions                : Front: L R
Sampling rate                    : 48.0 KHz
Compression mode                 : Lossy
Stream size                      : 69.7 MiB (9%)





Tracklist:
1. Intro: Scotland The Brave (feat. Bauluy Muluy Pipes & Drums Band)
2. Scotland United
3. The Dark Of The Sun
4. William Wallace (Braveheart)
5. The Bruce
6. The Battle Of Flodden
7. The Ballad Of Mary (feat. Doro)
8. The Truth
9. Cry For Freedom
10. Killing Time
11. Rebellion (feat. Hansi Kursch)
12. Culloden Muir
13. Ballad Of A Hangman
14. Excalibur
15. Heavy Metal Breakdown










Grave Digger The Clans Are Still Marching (BU)
30 Puntos Score: 10/10
Visitas: 589 Favoritos: 0
Ver los usuarios que votaron...
1 Comentarios Grave Digger The Clans Are Still Marching (BU)
Gracias mil por todo    saludazo  
Para dejar un comentario Registrate! o.. eres ya usuario? Accede!