Audios latinos de algunas peliculas de jackie chan


Solo audio de las peliculas  para unir con el mkvtoolnix o con el programa que ustedes gusten

Shanghai Noon | Shanghai Kid, del este al oeste




Audio
ID                                           : 1
Format                                     : AC-3
Format/Info                              : Audio Coding 3
Mode extension                          : CM (complete main)
Format settings, Endianness         : Big
Codec ID                                  : A_AC3
Duration                                   : 1h 49mn
Bit rate mode                            : Constant
Bit rate                                    : 384 Kbps
Channel(s)                               : 6 channels
Channel positions                      : Front: L C R, Side: L R, LFE
Sampling rate                           : 44.1 KHz
Bit depth                                 : 16 bits
Compression mode                     : Lossy
Stream size                              : 302 MiB (100%)
Title                                       : Español Latino














Rumble in the Bronx | Masacre en nueva york |Duro de matar | 1995



Audio
ID                                           : 1
Format                                    : AC-3
Format/Info                              : Audio Coding 3
Format profile                           : Dolby Digital
Mode extension                         : CM (complete main)
Format settings, Endianness        : Big
Codec ID                                  : A_AC3
Duration                                  : 1h 29mn
Bit rate mode                            : Constant
Bit rate                                   : 192 Kbps
Channel(s)                               : 2 channels
Channel positions                      : Front: L R
Sampling rate                           : 48.0 KHz
Bit depth                                 : 16 bits
Compression mode                    : Lossy
Stream size                             : 123 MiB (100%)
Title                                      : ESPAÑOL LATINO
Language                               : Spanish











 


Mi vecino es un espia | El super canguro|2010



Audio
ID                                            : 1
Format                                      : AC-3
Format/Info                               : Audio Coding 3
Mode extension                          : CM (complete main)
Format settings, Endianness         : Big
Codec ID                                  : A_AC3
Duration                                   : 1h 34mn
Bit rate mode                            : Constant
Bit rate                                    : 192 Kbps
Channel(s)                               : 2 channels
Channel positions                      : Front: L R
Sampling rate                           : 48.0 KHz
Bit depth                                 : 16 bits
Compression mode                     : Lossy
Stream size                              : 130 MiB (100%)










El reino prohibido | The Forbidden Kingdom | 2008



Audio
ID                                            : 1
Format                                     : AC-3
Format/Info                               : Audio Coding 3
Mode extension                          : CM (complete main)
Format settings, Endianness         : Big
Codec ID                                  : A_AC3
Duration                                   : 1h 44mn
Bit rate mode                            : Constant
Bit rate                                    : 512 Kbps
Channel(s)                                : 2 channels
Channel positions                       : Front: L R
Sampling rate                            : 48.0 KHz
Bit depth                                  : 16 bits
Compression mode                     : Lossy
Stream size                              : 382 MiB (100%)
Title                                        : LATINO
Language                                 : Spanish









 




<([[email protected]!m0}])>




Si gustas puedes visitar mis otros aportes:
BRUCE LEE

The big boos o Karate a Muerte... 1080p
Operacion dragon o Enter dragon / bruce lee 720p
Fist Of Fury (1972) bruce lee [720p dual]
El furor del dragon 1972 BRrit 1080p
bruce lee|Juego con la muerte |Game of Death|720p

MAS

Saga El planeta de los simios 1,2,3,4,5,6,7 Dual [1968-2011]
El Rey Escorpion 1 (2002) Bdrit 1080p, Dual
[Mega] Coleccion d Películas 1080p mkv ligero dual
Los amos del universo (1987) [1080p latino]
solo audios latinos|trilogia hora punta|jackiechan

JACKIE CHAN

Jackie chan|Mi vecino es un espia|2010|720p
Jakie chan|El reino prohibido|2008 |1080p Dual
Jackie chan|Una pareja explosiva 3|2007 1080p Dual
Jackie chan| New Police Story 2004 |1080p dual 5.1
Jackie chan|Shanghai Knights 2 [2003][1080p Dual]
Jackie chan|El poder del talismán|2003|720p Ligero
Jackie chan | Una pareja explosiva 2   2001  |720p Dual

Jackien chan|Shanghai Noon 1 [2000] 1080p Dual
Jackie chan|Una pareja explosiva 1 1998 |1080p Dual
Jackie chan|Rumble in the Bronx (1995) [720p] Dual
jackie chan|Drunken Master II|1994|brrit720p|dual
Jackie chan | La armadura de dios 1987 | mejorada
Jackie chan | La armadura de dios 1987 | 720p Dual

Jakie chan|Drunken Master|1978|brrit 720p



Audios latinos de algunas peliculas de jackie chan
55 Puntos Score: 9.2/10
Visitas: 4194 Favoritos: 7
Ver los usuarios que votaron...
14 Comentarios Audios latinos de algunas peliculas de jackie chan
gracias, ojala   subas mas


eres lo maximo
@AsherB jajaja gracias estan chidos tis gif
Los 5 que me quedan.
Muy buenos audios  
te envie un MP , me parece que mis mp no llegan
capo me pide contrase?
@gdq00 jejeje perdon es esta se me paso <([[email protected]!m0}])>
@akula1997 gracias por pasar  
@AsherB no no me llego el mp
@akula1997 gracias  
gracias capo!!
podria conseguir los audios LATINOS de estas de jackie???
2 ladrones y un bebe
miracles
la isla de fuego
winners and sinners 1
es que no he podido encontrar ninguna de estas en LATINO solo castellano
 
@maximoalfa Buen aportazo pana  
podria conseguir los audios LATINOS de estas de jackie???
2 ladrones y un bebe
miracles
la isla de fuego
winners and sinners 1
es que no he podido encontrar ninguna de estas en LATINO solo castellano
Gracias espero y este activ?
no tendras el audio latino de el smoking??
Para dejar un comentario Registrate! o.. eres ya usuario? Accede!