New girl temporada 2 caps 11 al 18 tvrip latino

Saludos amigos, aqui les dejo mas capitulos de new girl, son de la segunda temporada capitulos 11 al 18ya tengo hasta el capitulo 23 pero falta ripearlos a avi, en unos dias estare completando los que faltan


   New Girl es una serie de televisión estadounidense que se estrenó en Fox el 20 de septiembre de 2011.2 Está protagonizada por Zooey Deschanel, Jake Johnson, Max Greenfield, Lamorne Morris, y Hannah Simone. El 28 de septiembre de 2011, después de dos episodios al aire, Fox ordenó un adicional de 11 episodios del primer orden de 13 episodios, con lo que la primera temporada quedo con 24 episodios


La serie comienza con Jessica "Jess" Day (interpretada por Zooey Deschanel), una mujer peculiar, burbujeante de casi treinta años que da clases en una escuela primaria local de Los Ángeles. Jess comienza a buscar un nuevo lugar para vivir después de encontrar a su novio engañándola. Al ver un anuncio de un nuevo compañero de cuarto en Craigslist, se muda con tres jóvenes: Nick, Schmidt y Coach. Muy poco después de su traslado, Coach se va, y es sustituido por Winston, otro joven que había vivido en el apartamento con Nick y Schmidt

Capturas 




Format                         : AVI
Format/Info                    : Audio Video Interleave
File size                      : 177 MiB
Duration                       : 21mn 24s
Overall bit rate               : 1 156 Kbps
Writing application            : VirtualDubMod 1.5.4.1 (build 2178/release)
Writing library                : Boilsoft AVI tool build 1/release

Video
ID                             : 0
Format                         : MPEG-4 Visual
Format profile                 : Advanced [email protected]
Format settings, BVOP          : Yes
Format settings, QPel          : No
Format settings, GMC           : No warppoints
Format settings, Matrix        : Custom
Codec ID                       : XVID
Codec ID/Hint                  : XviD
Duration                       : 21mn 24s
Bit rate                       : 1 018 Kbps
Width                          : 640 pixels
Height                         : 480 pixels
Display aspect ratio           : 4:3
Frame rate                     : 23.976 fps
Color space                    : YUV
Chroma subsampling             : 4:2:0
Bit depth                      : 8 bits
Scan type                      : Progressive
Compression mode               : Lossy
Bits/(Pixel*Frame)             : 0.138
Stream size                    : 156 MiB (88%)
Writing library                : XviD 64

Audio
ID                             : 1
Format                         : MPEG Audio
Format version                 : Version 1
Format profile                 : Layer 3
Mode                           : Joint stereo
Mode extension                 : MS Stereo
Codec ID                       : 55
Codec ID/Hint                  : MP3
Duration                       : 21mn 24s
Bit rate mode                  : Constant
Bit rate                       : 128 Kbps
Channel count                  : 2 channels
Sampling rate                  : 48.0 KHz
Compression mode               : Lossy
Stream size                    : 19.6 MiB (11%)
Alignment                      : Aligned on interleaves
Interleave, duration           : 42 ms (1.00 video frame)
Interleave, preload duration   : 504 ms

Esta vez van por mega,y al jd para que no nos pase esto     


Son 14 links de 100 mb y uno de 26mb al descomprimir les saldran los capitulos 11 al 18

DESCARGA AQUI


Nuevos links billionuploads




Contraseña   NEW GIRL

Aqui en este post mas capitulos de la primera y segunda temporada
http://www.identi.li/index.php?topic=252612



New girl temporada 2 caps 11 al 18 tvrip latino
0 Puntos Score: 0/10
Visitas: 2531 Favoritos: 5
26 Comentarios New girl temporada 2 caps 11 al 18 tvrip latino
gracias la estaba esperando eres mi idolo jejejej no te dejo puntos por que soy novato jejeje
Genial Men Muchas Gracias ... Grande   :DSaludos
Gracias amigo, una pregunta en que calidad la tenes antes de ripearla?
Hermano eres lo mejor, Gracias por esto!
@drako_jep @vackochav @HD-CIX @waldomuniz de nada, no tuvieron problemas con la descarga

@ruso10 amigo es formato dvd lo grabo con un dvd grabador lg, cada capitulo pesa un giga y lo ripeo a 180 megas la calidad es igual, ya que el canal de tv asi se ve, si los comparas no tienen mucha diferencia

General
Complete name                            : E:new 23VIDEO_TSVTS_01_1.VOB
Format                                   : MPEG-PS
File size                                : 1 024 MiB
Duration                                 : 21mn 26s
Overall bit rate mode                    : Variable
Overall bit rate                         : 6 676 Kbps

Video
ID                                       : 224 (0xE0)
Format                                   : MPEG Video
Format version                           : Version 2
Format profile                           : [email protected]
Format settings, BVOP                    : Yes
Format settings, Matrix                  : Custom
Format settings, GOP                     : M=3, N=15
Duration                                 : 21mn 26s
Bit rate mode                            : Variable
Bit rate                                 : 6 287 Kbps
Maximum bit rate                         : 6 556 Kbps
Width                                    : 720 pixels
Height                                   : 480 pixels
Display aspect ratio                     : 4:3
Frame rate                               : 29.970 fps
Standard                                 : NTSC
Color space                              : YUV
Chroma subsampling                       : 4:2:0
Bit depth                                : 8 bits
Scan type                                : Interlaced
Scan order                               : Top Field First
Compression mode                         : Lossy
Bits/(Pixel*Frame)                       : 0.607
Time code of first frame                 : 00:02:38;19
Time code source                         : Group of pictures header
Stream size                              : 964 MiB (94%)

Audio
ID                                       : 189 (0xBD)-128 (0x80)
Format                                   : AC-3
Format/Info                              : Audio Coding 3
Mode extension                           : CM (complete main)
Format settings, Endianness              : Big
Muxing mode                              : DVD-Video
Duration                                 : 21mn 26s
Bit rate mode                            : Constant
Bit rate                                 : 256 Kbps
Channel(s)                               : 2 channels
Channel positions                        : Front: L R
Sampling rate                            : 48.0 KHz
Bit depth                                : 16 bits
Compression mode                         : Lossy
Delay relative to video                  : -326ms
Stream size                              : 39.3 MiB (4%)

Menu
Gracias Amigo, lo estaba esperando  
nop, todas bajaron bien
@waldomuniz @k999g de nada pronto subire los ultimos,parece ser que anoche fue el ultimo capitulo de la temp 2
ya junte los 25 capitulos,la temporada 3 no creo que la pasen tan pronto tocara esperar  
@ruso10 @HD-CIX @drako_jep @vackochav
que tal amigo , oye un favor muy grande. podrias ademas del link de jdownloder , ?
genial grax se te agradece
@juanw200 no, la descarga funciono todo a la perfeccion esperando los ultimos capitulos saludos
o que me diga como le hago para agregarlos al jdownloder porfa
@kirito_kun checate con my pony a ver si te funciona, o dejame ver si te los puedo pasar por zippyshare
@kirito_kun no pude por zippy share pero te los dejo por billionuploads
@juanw200 te lo agradesco mucho  
gracias por el aporte.... esperando los que faltan por fa
esperando los ultimos de esta temporada, gracias por los anteriores!!! =)!!!
@juanw200 hola amigo que tal subiras los que faltan de esta temporada saludos y gracias por todos tus aportes
amigo falta la parte 14
termina la temporada por fa   te lo agradeceria mucho...
xfa xfa xfa sube mas capitulos....
@ChinoM1 @angelitron aver si puedo completar los ultimos capitulos este fin de semana,lo que pasa es que cambie mi compu por otra, y apenas estoy instalando todo lo que tenia en la otra pc,
@juanw200  podrias avisarnos cuando los subas x fa, te sigo pero no sirve de nada x q esta cosa no notifica, grax
@juanw200 si yo tambien espero lo mismo espero la acompletes y no se quede asi e igual si me puedes avisar saludos y estare esperando
gracias pero me podr?
Para dejar un comentario Registrate! o.. eres ya usuario? Accede!