educap
"Por qué algo y no más bien nada?"

1983-La foca dorada-The golden seal-Avi-Esp-MG

1983-La foca dorada-The golden seal-Avi-Esp-MG









Título original
The Golden Seal

Año
1983

Duración
94 min.

País
Estados Unidos Estados Unidos

Director
Frank Zuniga

Guión
John Groves (Novela: James Vance Marshall)

Música
Dana Kaproff

Fotografía
Eric Saarinen

Reparto
Steve Railsback, Michael Beck, Penelope Mildford, Torquil Campbell, Seth Sakai, Richard Narita, Sandra Seacat

Productora
The Samuel Goldwyn Company

Género
Aventuras. Drama. Infantil | Animales. Cine familiar

Sinopsis
Jim y Tanya viven con su hijo Eric en Umnak, un desolado paraje de las Islas Aleutianas, cerca del Círculo Polar Ártico. Una leyenda cuenta que cuando los hombres llegaron a las islas después de cruzar la lengua de tierra del mar de Bering, la foca dorada vino para enseñarles y protegerlos. Sin embargo, la codicia hizo que el hombre empezará a cazar las focas y la foca dorada tuvo que ocultarse bajo el círculo polar ártico. También dice que su regreso traerá consigo una gran tormenta de rayos dorados. Un día la leyenda se convierte en realidad y con ella también reaparecen los peores instintos del ser humano. (FILMAFFINITY)



General
Complete name                     (The Golden Seal)-DVD+VHS Castellano.avi
Format                                   : AVI
Format/Info                              : Audio Video Interleave
File size                                : 1.05 GiB
Duration                                 : 1h 35mn
Overall bit rate                         : 1 573 Kbps
Director                                 : Coxtra&Paracaidista
Subject                                  : La Foca Dorada (1983)   DVD+VHS
Archival location                        : www.terrorfantastico.com
Writing library                          : VirtualDub build 30586/release
Copyright                                : Terrorfantastico&Hispacine

Video
ID                                       : 0
Format                                   : MPEG-4 Visual
Format profile                           : Advanced [email protected]
Format settings, BVOP                    : 1
Format settings, QPel                    : No
Format settings, GMC                     : No warppoints
Format settings, Matrix                  : Default (H.263)
Muxing mode                              : Packed bitstream
Codec ID                                 : XVID
Codec ID/Hint                            : XviD
Duration                                 : 1h 35mn
Bit rate                                 : 1 371 Kbps
Width                                    : 720 pixels
Height                                   : 544 pixels
Display aspect ratio                     : 4:3
Frame rate                               : 23.976 fps
Color space                              : YUV
Chroma subsampling                       : 4:2:0
Bit depth                                : 8 bits
Scan type                                : Progressive
Compression mode                         : Lossy
Bits/(Pixel*Frame)                       : 0.146
Stream size                              : 933 MiB (87%)
Writing library                          : XviD 62

Audio
ID                                       : 1
Format                                   : MPEG Audio
Format version                           : Version 1
Format profile                           : Layer 3
Mode                                     : Joint stereo
Codec ID                                 : 55
Codec ID/Hint                            : MP3
Duration                                 : 1h 34mn
Bit rate mode                            : Constant
Bit rate                                 : 192 Kbps
Channel(s)                               : 2 channels
Sampling rate                            : 48.0 KHz
Compression mode                         : Lossy
Stream size                              : 130 MiB (12%)
Alignment                                : Split accross interleaves
Interleave, duration                     : 42 ms (1.00 video frame)
Interleave, preload duration             : 500 ms


Uploder educap
Idioma Español de España (no la consegui ni en ingles ni menos en latino)

Descargado de torrent a 10 kb/s sin ningun seeders la verdad despues de 1 mes no se como la descargué... 













Enlaces De Descarga


educap
1983-La foca dorada-The golden seal-Avi-Esp-MG
40 Puntos Score: 10/10
Visitas: 1860 Favoritos: 0
Ver los usuarios que votaron...
7 Comentarios 1983-La foca dorada-The golden seal-Avi-Esp-MG
Muchas gracias por el aporte.
Cita tiresias17: Mostrar
gracias, cuan importante es un comentario, para justificar la subida  
Se ve buena , la voy a descargar a ver que tal , no tengo pts ahora pero apenas me recarguen te dejo algunos saludos !  
Cita detroid18: Mostrar
no es que digamos ufff que peliculon, pero yo la vi hace diez a?
Para dejar un comentario Registrate! o.. eres ya usuario? Accede!