New girl temporada 2 capitulos 6 al 10 tvrip latin

Saludos nuevamente,aqui les dejo los capitulos de new girl temporada 2, son de 6 al 10
 New Girl es una serie de televisión estadounidense que se estrenó en Fox el 20 de septiembre de 2011.2 Está protagonizada por Zooey Deschanel, Jake Johnson, Max Greenfield, Lamorne Morris, y Hannah Simone. El 28 de septiembre de 2011, después de dos episodios al aire, Fox ordenó un adicional de 11 episodios del primer orden de 13 episodios, con lo que la primera temporada quedo con 24 episodios


La serie comienza con Jessica "Jess" Day (interpretada por Zooey Deschanel), una mujer peculiar, burbujeante de casi treinta años que da clases en una escuela primaria local de Los Ángeles. Jess comienza a buscar un nuevo lugar para vivir después de encontrar a su novio engañándola. Al ver un anuncio de un nuevo compañero de cuarto en Craigslist, se muda con tres jóvenes: Nick, Schmidt y Coach. Muy poco después de su traslado, Coach se va, y es sustituido por Winston, otro joven que había vivido en el apartamento con Nick y Schmidt.

capturas






Todos los videos tienen las mismas caracteristicas
General
Complete name                  NEW GIRL T2 2X06 LAT.avi
Format                         : AVI
Format/Info                    : Audio Video Interleave
File size                      : 178 MiB
Duration                       : 21mn 40s
Overall bit rate               : 1 148 Kbps
Writing application            : VirtualDubMod 1.5.4.1 (build 2178/release)
Writing library                : Boilsoft AVI tool build 1/release

Video
ID                             : 0
Format                         : MPEG-4 Visual
Format profile                 : Advanced [email protected]
Format settings, BVOP          : Yes
Format settings, QPel          : No
Format settings, GMC           : No warppoints
Format settings, Matrix        : Custom
Codec ID                       : XVID
Codec ID/Hint                  : XviD
Duration                       : 21mn 40s
Bit rate                       : 1 010 Kbps
Width                          : 640 pixels
Height                         : 480 pixels
Display aspect ratio           : 4:3
Frame rate                     : 23.976 fps
Color space                    : YUV
Chroma subsampling             : 4:2:0
Bit depth                      : 8 bits
Scan type                      : Progressive
Compression mode               : Lossy
Bits/(Pixel*Frame)             : 0.137
Stream size                    : 157 MiB (88%)
Writing library                : XviD 64

Audio
ID                             : 1
Format                         : MPEG Audio
Format version                 : Version 1
Format profile                 : Layer 3
Mode                           : Joint stereo
Mode extension                 : MS Stereo
Codec ID                       : 55
Codec ID/Hint                  : MP3
Duration                       : 21mn 40s
Bit rate mode                  : Constant
Bit rate                       : 128 Kbps
Channel count                  : 2 channels
Sampling rate                  : 48.0 KHz
Compression mode               : Lossy
Stream size                    : 19.8 MiB (11%)
Alignment                      : Aligned on interleaves
Interleave, duration           : 42 ms (1.00 video frame)
Interleave, preload duration   : 504 ms

Descarga putlocker capitulos 6 al 10


Descarga billionuploads CAPITULOS 6 AL 10




Capitulos de la temporada 2 capitulos del 1 al 5 aqui
http://www.identi.li/index.php?topic=249227

Primera temporada completa aqui por putlocker 24 capitulos en total 


Gracias a todos los que visitan y comentan mis post saludos desde monterrey la ciudad de las montañas


New girl temporada 2 capitulos 6 al 10 tvrip latin
45 Puntos Score: 9/10
Visitas: 3620 Favoritos: 1
Ver los usuarios que votaron...
22 Comentarios New girl temporada 2 capitulos 6 al 10 tvrip latin
Muy Bueno! Gracias   Sperando mas si las tienes
Gracias Infinitamente ... Saludos
Gracias, como siempre me alegras el dia... Gracias
@Evilmaik @waldomuniz @HD-CIX de nada disfruten los capitulos en unos dias subo unos cuantos capitulos mas que tengo
y buenisimas las fotos de Monterrey.
Excelente aporte, mil gracias.
muchas gracias men saludos del D.F  
Muy bueno amigo, hoy son excelentes pero dentro de 15 a?
para cuando el resto amigo que ya tengo ganas de ver mas
hola solo para preguntarte si tienes la serie de elementary ya que esta de poca gracias
@shinigami3 no amigo esa no la tengo, la estan pasando antes de new girl en el mismo canal
huuu que mal de todos modos exelente aporte mi mujer esta mas que feliz con esta serie ya hace tienpo la queria en espa?
@juanw200 hola que tal para cuando subes los demas capitulos de esta genial serie te lo agradeceria mucho saludos
el orden de los capitulos estan mal  ...  no siguen el orden haber si los comparas con las versiones q salieron en ingles
@vicoforyou si tienes razon, yo los grabe asi por que en ese oder fueron saliedo,la televisora asi los paso se equivocaron,solo que yo no he tenido tiempo de ordenarlos,
Master,

ya no funcionan...

Salu2
@gatochalado amigo todos funcionan pasate por estos post
New girl temporada 2 caps 19 al 25 tvrip latino

http://www.identi.li/index.php?topic=266932


New girl temporada 2 caps 11 al 18 tvrip latino
http://www.identi.li/index.php?topic=257525

New girl temporada 2 capitulos 6 al 10 tvrip latin
http://www.identi.li/index.php?topic=252612



New girl temporada 2 capitulos 3 al 5 tvriplatino
http://www.identi.li/index.php?topic=249227



http://www.identi.li/index.php?topic=247074
New girl temporada 2, capitulos 1 y 2 tvrip latino
Master tienes raz?
otra vez gracias! :p
links de mega caidos
Para dejar un comentario Registrate! o.. eres ya usuario? Accede!