Saga Vengadores, [BDrip 1080p] - Segunda Parte -

IRONMAN 3



 


INFORMACIÓN

Título original
Iron Man 3 (Ironman 3)
Año
2013
Duración
130 min.
País
Estados Unidos Estados Unidos
Director
Shane Black
Guión
Shane Black, Drew Pearce (Personajes: Stan Lee)
Música
Brian Tyler
Fotografía
John Toll
Reparto
Robert Downey Jr., Ben Kingsley, Gwyneth Paltrow, Don Cheadle, Guy Pearce, Rebecca Hall, James Badge Dale, Stephanie Szostak, Ty Simpkins, Wang Xueqi, Jon Favreau, William Sadler, Miguel Ferrer, Bingbing Fan, Yvonne Zima, Dale Dickey, Ashley Hamilton, Stan Lee
Productora
Marvel Studios / Walt Disney Pictures
Género
Fantástico. Ciencia ficción. Acción | Superhéroes. Cómic. Marvel Comics. Secuela. 3-D. Robots. Terrorismo
Web Oficial
http://marvel.com/
Sinopsis
El descarado y brillante empresario Tony Stark/Iron Man se enfrentará a un enemigo cuyo poder no conoce límites. Cuando Stark comprende que su enemigo ha destruido su universo personal, se embarca en una angustiosa búsqueda para encontrar a los responsables. Este viaje pondrá a prueba su entereza una y otra vez. Acorralado, Stark tendrá que sobrevivir por sus propios medios, confiando en su ingenio y su instinto para proteger a las personas que quiere. (FILMAFFINITY)



General
Unique ID                                : 213262053630709637545607474897398788328 (0xA070C70AD29709A293857312C26FF0E8)
Complete name                            : F:Iron Man 3.mkv
Format                                   : Matroska
Format version                           : Version 2
File size                                : 12.3 GiB
Duration                                 : 2h 11mn
Overall bit rate                         : 13.4 Mbps
Movie name                               : QBTEAM
Encoded date                             : UTC 2013-08-20 05:06:14
Writing application                      : mkvmerge v5.8.0 ('No Sleep / Pillow') built on Sep  2 2012 15:37:04
Writing library                          : libebml v1.2.3 + libmatroska v1.3.0

Video
ID                                       : 1
Format                                   : AVC
Format/Info                              : Advanced Video Codec
Format profile                           : [email protected]
Format settings, CABAC                   : Yes
Format settings, ReFrames                : 5 frames
Codec ID                                 : V_MPEG4/ISO/AVC
Duration                                 : 2h 11mn
Bit rate                                 : 11.6 Mbps
Width                                    : 1 920 pixels
Height                                   : 800 pixels
Display aspect ratio                     : 2.40:1
Frame rate mode                          : Constant
Frame rate                               : 23.976 fps
Color space                              : YUV
Chroma subsampling                       : 4:2:0
Bit depth                                : 8 bits
Scan type                                : Progressive
Bits/(Pixel*Frame)                       : 0.316
Stream size                              : 10.3 GiB (84%)
Writing library                          : x264 core 130 r2273 b3065e6
Encoding settings                        : cabac=1 / ref=5 / deblock=1:-3:-3 / analyse=0x3:0x113 / me=umh / subme=8 / psy=1 / psy_rd=1.00:0.00 / mixed_ref=1 / me_range=16 / chroma_me=1 / trellis=1 / 8x8dct=1 / cqm=0 / deadzone=21,11 / fast_pskip=1 / chroma_qp_offset=-2 / threads=64 / lookahead_threads=6 / sliced_threads=0 / nr=0 / decimate=1 / interlaced=0 / bluray_compat=0 / constrained_intra=0 / bframes=3 / b_pyramid=2 / b_adapt=2 / b_bias=0 / direct=3 / weightb=1 / open_gop=0 / weightp=2 / keyint=240 / keyint_min=23 / scenecut=40 / intra_refresh=0 / rc=abr / mbtree=0 / bitrate=11642 / ratetol=1.0 / qcomp=0.60 / qpmin=0 / qpmax=69 / qpstep=4 / ip_ratio=1.40 / pb_ratio=1.30 / aq=1:1.00
Language                                 : English
Default                                  : Yes
Forced                                   : No

Audio #1
ID                                       : 2
Format                                   : AC-3
Format/Info                              : Audio Coding 3
Mode extension                           : CM (complete main)
Format settings, Endianness              : Big
Codec ID                                 : A_AC3
Duration                                 : 2h 11mn
Bit rate mode                            : Constant
Bit rate                                 : 384 Kbps
Channel(s)                               : 6 channels
Channel positions                        : Front: L C R, Side: L R, LFE
Sampling rate                            : 48.0 KHz
Bit depth                                : 16 bits
Compression mode                         : Lossy
Delay relative to video                  : 24ms
Stream size                              : 360 MiB (3%)
Language                                 : Spanish
Default                                  : Yes
Forced                                   : Yes

Audio #2
ID                                       : 3
Format                                   : DTS
Format/Info                              : Digital Theater Systems
Mode                                     : 16
Format settings, Endianness              : Big
Codec ID                                 : A_DTS
Duration                                 : 2h 11mn
Bit rate mode                            : Constant
Bit rate                                 : 1 509 Kbps
Channel(s)                               : 6 channels
Channel positions                        : Front: L C R, Side: L R, LFE
Sampling rate                            : 48.0 KHz
Bit depth                                : 24 bits
Compression mode                         : Lossy
Stream size                              : 1.38 GiB (11%)
Language                                 : English
Default                                  : No
Forced                                   : No

Text #1
ID                                       : 4
Format                                   : UTF-8
Codec ID                                 : S_TEXT/UTF8
Codec ID/Info                            : UTF-8 Plain Text
Language                                 : English
Default                                  : No
Forced                                   : No

Text #2
ID                                       : 5
Format                                   : UTF-8
Codec ID                                 : S_TEXT/UTF8
Codec ID/Info                            : UTF-8 Plain Text
Language                                 : English
Default                                  : No
Forced                                   : No

Text #3
ID                                       : 6
Format                                   : UTF-8
Codec ID                                 : S_TEXT/UTF8
Codec ID/Info                            : UTF-8 Plain Text
Language                                 : Spanish
Default                                  : Yes
Forced                                   : Yes

Text #4
ID                                       : 7
Format                                   : UTF-8
Codec ID                                 : S_TEXT/UTF8
Codec ID/Info                            : UTF-8 Plain Text
Language                                 : Spanish
Default                                  : No
Forced                                   : No

 







  IRONMAN
 


INFORMACIÓN

Título original
Iron Man (Ironman)
Año
2008
Duración
126 min.
País
Estados Unidos Estados Unidos
Director
Jon Favreau
Guión
Arthur Marcum, Matt Holloway, Mark Fergus, Hawk Ostby (Personajes: Stan Lee)
Música
Ramin Djawadi
Fotografía
Matthew Libatique
Reparto
Robert Downey Jr., Terrence Howard, Gwyneth Paltrow, Jeff Bridges, Stan Lee, Leslie Bibb, Clark Gregg, Shaun Toub, Faran Tahir, Samuel L. Jackson
Productora
Paramount Pictures / Marvel Enterprises / Goldman & Associates
Género
Fantástico. Acción. Aventuras. Ciencia ficción | Superhéroes. Cómic. Marvel Comics. Robots
Web Oficial
http://www.sonypicturesreleasing.es/sites/ironman/
Sinopsis
El multimillonario fabricante de armas Tony Stark (Robert Downey Jr.) debe enfrentarse a su turbio pasado después de sufrir un accidente con una de sus armas. Equipado con una armadura de última generación tecnológica, se convierte en "El hombre de hierro", un héroe que se dedica a combatir el mal en todo el mundo. (FILMAFFINITY)


MEDIA INFO


 
General
Unique ID                                : 180252215453926556521833752687952728740 (0x879B505D9E034A59999CC72CCFF712A4)
Complete name                            : \SALON-HTPCPeliculas3HDIron Man [BDrip m-1080p AC3]Iron Man [BDrip m-1080p AC3].mkv
Format                                   : Matroska
Format version                           : Version 2
File size                                : 12.7 GiB
Duration                                 : 2h 5mn
Overall bit rate mode                    : Variable
Overall bit rate                         : 14.5 Mbps
Movie name                               : by_e_vlad_craso_team
Encoded date                             : UTC 2013-08-04 14:24:32
Writing application                      : mkvmerge v5.8.0 ('No Sleep / Pillow') built on Sep  2 2012 15:37:04
Writing library                          : libebml v1.2.3 + libmatroska v1.3.0

Video
ID                                       : 1
Format                                   : AVC
Format/Info                              : Advanced Video Codec
Format profile                           : [email protected]
Format settings, CABAC                   : Yes
Format settings, ReFrames                : 4 frames
Muxing mode                              : Header stripping
Codec ID                                 : V_MPEG4/ISO/AVC
Duration                                 : 2h 5mn
Bit rate                                 : 12.0 Mbps
Nominal bit rate                         : 10 000 Kbps
Width                                    : 1 920 pixels
Height                                   : 1 080 pixels
Display aspect ratio                     : 16:9
Frame rate                               : 23.976 fps
Color space                              : YUV
Chroma subsampling                       : 4:2:0
Bit depth                                : 8 bits
Scan type                                : Progressive
Bits/(Pixel*Frame)                       : 0.241
Stream size                              : 10.5 GiB (83%)
Writing library                          : x264 core 133 r2334 a3ac64b
Encoding settings                        : cabac=1 / ref=4 / deblock=1:-1:-1 / analyse=0x3:0x113 / me=umh / subme=7 / psy=1 / psy_rd=1.00:0.00 / mixed_ref=1 / me_range=16 / chroma_me=1 / trellis=2 / 8x8dct=1 / cqm=0 / deadzone=21,11 / fast_pskip=1 / chroma_qp_offset=-2 / threads=3 / lookahead_threads=1 / sliced_threads=0 / nr=0 / decimate=1 / interlaced=0 / bluray_compat=0 / constrained_intra=0 / bframes=3 / b_pyramid=2 / b_adapt=2 / b_bias=0 / direct=3 / weightb=1 / open_gop=0 / weightp=2 / keyint=240 / keyint_min=23 / scenecut=40 / intra_refresh=0 / rc_lookahead=40 / rc=2pass / mbtree=1 / bitrate=10000 / ratetol=1.0 / qcomp=0.60 / qpmin=10 / qpmax=51 / qpstep=4 / cplxblur=20.0 / qblur=0.5 / vbv_maxrate=50000 / vbv_bufsize=50000 / nal_hrd=none / ip_ratio=1.40 / aq=1:1.00
Default                                  : Yes
Forced                                   : No

Audio #1
ID                                       : 2
Format                                   : DTS
Format/Info                              : Digital Theater Systems
Format profile                           : MA / Core
Muxing mode                              : Header stripping
Codec ID                                 : A_DTS
Duration                                 : 2h 5mn
Bit rate mode                            : Variable
Bit rate                                 : 1 561 Kbps / 1 510 Kbps
Channel(s)                               : 6 channels
Channel positions                        : Front: L C R, Side: L R, LFE
Sampling rate                            : 48.0 KHz
Bit depth                                : 24 bits
Compression mode                         : Lossless / Lossy
Title                                    : DTSHDMA
Language                                 : Spanish
Default                                  : Yes
Forced                                   : No

Audio #2
ID                                       : 3
Format                                   : AC-3
Format/Info                              : Audio Coding 3
Mode extension                           : CM (complete main)
Muxing mode                              : Header stripping
Codec ID                                 : A_AC3
Duration                                 : 2h 5mn
Bit rate mode                            : Constant
Bit rate                                 : 640 Kbps
Channel(s)                               : 6 channels
Channel positions                        : Front: L C R, Side: L R, LFE
Sampling rate                            : 48.0 KHz
Bit depth                                : 16 bits
Compression mode                         : Lossy
Stream size                              : 577 MiB (4%)
Title                                    : AC3
Language                                 : Spanish
Default                                  : No
Forced                                   : No

Text
ID                                       : 4
Format                                   : VobSub
Muxing mode                              : zlib
Codec ID                                 : S_VOBSUB
Codec ID/Info                            : The same subtitle format used on DVDs
Title                                    : forzados
Language                                 : Spanish
Default                                  : No
Forced                                   : No
[/left]


 
 
IRONMAN 2

 


INFORMACIÓN

Título original
Iron Man 2 (Ironman 2)
Año
2010
Duración
124 min.
País
Estados Unidos Estados Unidos
Director
Jon Favreau
Guión
Justin Theroux (Personajes: Stan Lee)
Música
John Debney
Fotografía
Matthew Libatique
Reparto
Robert Downey Jr., Mickey Rourke, Gwyneth Paltrow, Don Cheadle, Scarlett Johansson, Sam Rockwell, Samuel L. Jackson, Paul Bettany, Jon Favreau, Clark Gregg, Leslie Bibb
Productora
Marvel Studios / Paramount Pictures
Género
Fantástico. Ciencia ficción. Acción | Cómic. Superhéroes. Marvel Comics. Robots. Secuela
Web Oficial
http://ironmanmovie.marvel.com/intl/es/
Sinopsis
El mundo ya sabe que el multimillonario Tony Stark (Robert Downey Jr.) es Iron Man, el superhéroe enmascarado. A pesar de las presiones del gobierno, la prensa y la opinión pública para que comparta su tecnología con el ejército, Tony es reacio a desvelar los secretos de la armadura de Iron Man, porque teme que esa información caiga en en manos de irresponsables. Con Pepper Potts (Gwyneth Paltrow) y James ?Rhodey? Rhodes (Don Cheadle) a su lado, Tony forja alianzas nuevas y se enfrenta a nuevas y poderosas fuerzas. (FILMAFFINITY)

MEDIA INFO


 
General
Unique ID                                : 157521888602391805369358200598242822658 (0x76819CBA28FC3DF54EB40497A3DC8A02)
Complete name                            : \SALON-HTPCPeliculas3HDIron Man 2 [BDrip 1080p AC3]Iron Man 2 [BDrip 1080p AC3].mkv
Format                                   : Matroska
Format version                           : Version 2
File size                                : 12.5 GiB
Duration                                 : 2h 4mn
Overall bit rate                         : 14.4 Mbps
Encoded date                             : UTC 2010-09-27 00:14:41
Writing application                      : mkvmerge v4.3.0 ('Escape from the Island') realizado en Sep  4 2010 23:24:47
Writing library                          : libebml v1.0.0 + libmatroska v1.0.0

Video
ID                                       : 1
Format                                   : AVC
Format/Info                              : Advanced Video Codec
Format profile                           : [email protected]
Format settings, CABAC                   : Yes
Format settings, ReFrames                : 5 frames
Muxing mode                              : Header stripping
Codec ID                                 : V_MPEG4/ISO/AVC
Duration                                 : 2h 4mn
Bit rate                                 : 12.4 Mbps
Width                                    : 1 920 pixels
Height                                   : 816 pixels
Display aspect ratio                     : 2.35:1
Frame rate                               : 23.976 fps
Color space                              : YUV
Chroma subsampling                       : 4:2:0
Bit depth                                : 8 bits
Scan type                                : Progressive
Bits/(Pixel*Frame)                       : 0.330
Stream size                              : 10.6 GiB (84%)
Writing library                          : x264 core 104 r1703 cd21d05
Encoding settings                        : cabac=1 / ref=5 / deblock=1:-3:-3 / analyse=0x3:0x113 / me=umh / subme=9 / psy=1 / psy_rd=1.00:0.00 / mixed_ref=1 / me_range=32 / chroma_me=1 / trellis=2 / 8x8dct=1 / cqm=0 / deadzone=21,11 / fast_pskip=0 / chroma_qp_offset=-4 / threads=12 / sliced_threads=0 / nr=0 / decimate=0 / interlaced=0 / constrained_intra=0 / bframes=5 / b_pyramid=2 / b_adapt=2 / b_bias=0 / direct=3 / weightb=1 / open_gop=0 / weightp=2 / keyint=250 / keyint_min=23 / scenecut=40 / intra_refresh=0 / rc=2pass / mbtree=0 / bitrate=12410 / ratetol=1.0 / qcomp=0.60 / qpmin=10 / qpmax=51 / qpstep=4 / cplxblur=20.0 / qblur=0.5 / ip_ratio=1.40 / pb_ratio=1.30 / aq=1:0.90
Language                                 : English
Default                                  : Yes
Forced                                   : No

Audio #1
ID                                       : 2
Format                                   : AC-3
Format/Info                              : Audio Coding 3
Mode extension                           : CM (complete main)
Muxing mode                              : Header stripping
Codec ID                                 : A_AC3
Duration                                 : 2h 4mn
Bit rate mode                            : Constant
Bit rate                                 : 448 Kbps
Channel(s)                               : 6 channels
Channel positions                        : Front: L C R, Side: L R, LFE
Sampling rate                            : 48.0 KHz
Bit depth                                : 16 bits
Compression mode                         : Lossy
Stream size                              : 399 MiB (3%)
Language                                 : Spanish
Default                                  : Yes
Forced                                   : No

Audio #2
ID                                       : 3
Format                                   : DTS
Format/Info                              : Digital Theater Systems
Muxing mode                              : Header stripping
Codec ID                                 : A_DTS
Duration                                 : 2h 4mn
Bit rate mode                            : Constant
Bit rate                                 : 1 510 Kbps
Channel(s)                               : 6 channels
Channel positions                        : Front: L C R, Side: L R, LFE
Sampling rate                            : 48.0 KHz
Bit depth                                : 24 bits
Compression mode                         : Lossy
Stream size                              : 1.31 GiB (11%)
Language                                 : English
Default                                  : No
Forced                                   : No

Text #1
ID                                       : 4
Format                                   : UTF-8
Codec ID                                 : S_TEXT/UTF8
Codec ID/Info                            : UTF-8 Plain Text
Language                                 : Spanish
Default                                  : Yes
Forced                                   : Yes

Text #2
ID                                       : 5
Format                                   : UTF-8
Codec ID                                 : S_TEXT/UTF8
Codec ID/Info                            : UTF-8 Plain Text
Language                                 : English
Default                                  : No
Forced                                   : No
[/left]

 






Saga Los Vengadores Primera Parte Sigue Este Enlace 


http://www.identi.li/index.php?topic=251221






 Si No Comentas  Previamente  En El Post No Espere Que Te Conteste Luego  Gracias por Comentar 
 



Saga Vengadores, [BDrip 1080p] - Segunda Parte -
5 Puntos Score: 5/10
Visitas: 6909 Favoritos: 2
Ver los usuarios que votaron...
2 Comentarios Saga Vengadores, [BDrip 1080p] - Segunda Parte -
Para dejar un comentario Registrate! o.. eres ya usuario? Accede!