Saga Vengadores [BDrip 1080p] [74.4gb] TrueHD

 SAGA VENGADORES Bdrip 1080p 

 
 

EL INCREIBLE HULK

 


INFORMACIÓN

Título original
The Incredible Hulk (Hulk 2)
Año
2008
Duración
114 min.
País
Estados Unidos Estados Unidos
Director
Louis Leterrier
Guión
Zak Penn (Personaje: Stan Lee, Jack Kirby)
Música
Craig Armstrong
Fotografía
Peter Menzies Jr.
Reparto
Edward Norton, Liv Tyler, Tim Roth, William Hurt, Tim Blake Nelson, Ty Burrell, Stan Lee, Michael K. Williams, Robert Downey Jr., Peter Mensah
Productora
Universal Pictures / Marvel Enterprises
Género
Fantástico. Acción. Ciencia ficción | Cómic. Superhéroes. Marvel Comics
Web Oficial
http://incrediblehulk.marvel.com/
Sinopsis
El científico Bruce Banner (Edward Norton) recorre el mundo en busca de un antídoto que le permita librarse de su Alter Ego. Perseguido por el ejército y dominado por su propia rabia, es incapaz de sacarse de la cabeza a Betty Ross (Liv Tyler), por lo que decide volver a la civilización. Mientras se enfrenta a una extraña criatura, el agente de la KGB Emil Blonsky (Tim Roth) se expone a una dosis de radiación más intensa que la que convirtió a Bruce en Hulk. Emil hace responsable a Hulk de su terrible situación, y la ciudad de Nueva York se convierte en el escenario de la última batalla entre las dos criaturas más poderosas que jamás pisaron la Tierra. (FILMAFFINITY)

MEDIA INFO


 
General
Unique ID                                : 235411783111077434084752442015190222105 (0xB11AA90531F586E6A52CDC86D28E0519)
Complete name                            : SALON-HTPCPeliculas2HDEl Increible Hulk [BDrip Remux 1080p TrueHD]El Increible Hulk [BDrip Remux 1080p TrueHD].mkv
Format                                   : Matroska
Format version                           : Version 2
File size                                : 8.94 GiB
Duration                                 : 1h 52mn
Overall bit rate mode                    : Variable
Overall bit rate                         : 11.4 Mbps
Encoded date                             : UTC 2013-08-05 12:21:42
Writing application                      : mkvmerge v5.8.0 ('No Sleep / Pillow') built on Sep  2 2012 15:37:04
Writing library                          : libebml v1.2.3 + libmatroska v1.3.0

Video
ID                                       : 1
Format                                   : AVC
Format/Info                              : Advanced Video Codec
Format profile                           : [email protected]
Format settings, CABAC                   : Yes
Format settings, ReFrames                : 4 frames
Muxing mode                              : Header stripping
Codec ID                                 : V_MPEG4/ISO/AVC
Duration                                 : 1h 52mn
Nominal bit rate                         : 8 999 Kbps
Width                                    : 1 920 pixels
Height                                   : 816 pixels
Display aspect ratio                     : 2.35:1
Frame rate                               : 23.976 fps
Color space                              : YUV
Chroma subsampling                       : 4:2:0
Bit depth                                : 8 bits
Scan type                                : Progressive
Bits/(Pixel*Frame)                       : 0.240
Writing library                          : x264 core 133 r2334 a3ac64b
Encoding settings                        : cabac=1 / ref=4 / deblock=1:-1:-1 / analyse=0x3:0x113 / me=umh / subme=7 / psy=1 / psy_rd=1.00:0.00 / mixed_ref=1 / me_range=16 / chroma_me=1 / trellis=2 / 8x8dct=1 / cqm=0 / deadzone=21,11 / fast_pskip=1 / chroma_qp_offset=-2 / threads=3 / lookahead_threads=1 / sliced_threads=0 / nr=0 / decimate=1 / interlaced=0 / bluray_compat=0 / constrained_intra=0 / bframes=3 / b_pyramid=2 / b_adapt=2 / b_bias=0 / direct=3 / weightb=1 / open_gop=0 / weightp=2 / keyint=240 / keyint_min=23 / scenecut=40 / intra_refresh=0 / rc_lookahead=40 / rc=2pass / mbtree=1 / bitrate=8999 / ratetol=1.0 / qcomp=0.60 / qpmin=10 / qpmax=51 / qpstep=4 / cplxblur=20.0 / qblur=0.5 / vbv_maxrate=50000 / vbv_bufsize=50000 / nal_hrd=none / ip_ratio=1.40 / aq=1:1.00
Default                                  : Yes
Forced                                   : No

Audio #1
ID                                       : 2
Format                                   : TrueHD
Codec ID                                 : A_TRUEHD
Duration                                 : 1h 52mn
Bit rate mode                            : Variable
Maximum bit rate                         : 3 153 Kbps
Channel(s)                               : 6 channels
Channel positions                        : Front: L C R, Side: L R, LFE
Sampling rate                            : 48.0 KHz
Bit depth                                : 24 bits
Compression mode                         : Lossless
Title                                    : 5.1
Language                                 : Spanish
Default                                  : No
Forced                                   : No

Audio #2
ID                                       : 3
Format                                   : AC-3
Format/Info                              : Audio Coding 3
Mode extension                           : CM (complete main)
Muxing mode                              : Header stripping
Codec ID                                 : A_AC3
Duration                                 : 1h 52mn
Bit rate mode                            : Constant
Bit rate                                 : 448 Kbps
Channel(s)                               : 6 channels
Channel positions                        : Front: L C R, Side: L R, LFE
Sampling rate                            : 48.0 KHz
Bit depth                                : 16 bits
Compression mode                         : Lossy
Stream size                              : 360 MiB (4%)
Title                                    : 3/2+1
Language                                 : Spanish
Default                                  : No
Forced                                   : No

Text #1
ID                                       : 4
Format                                   : PGS
Muxing mode                              : zlib
Codec ID                                 : S_HDMV/PGS
Codec ID/Info                            : The same subtitle format used on BDs/HD-DVDs
Language                                 : Spanish
Default                                  : No
Forced                                   : No

Text #2
ID                                       : 5
Format                                   : PGS
Muxing mode                              : zlib
Codec ID                                 : S_HDMV/PGS
Codec ID/Info                            : The same subtitle format used on BDs/HD-DVDs
Language                                 : Spanish
Default                                  : No
Forced                                   : No

Menu
00:00:00.000                             : en:Chapter 00
00:05:48.639                             : en:Chapter 01
00:12:51.312                             : en:Chapter 02
00:21:16.024                             : en:Chapter 03
00:30:41.881                             : en:Chapter 04
00:40:21.168                             : en:Chapter 05
00:47:32.307                             : en:Chapter 06
00:55:56.186                             : en:Chapter 07
01:02:26.451                             : en:Chapter 08
01:12:19.918                             : en:Chapter 09
01:19:52.078                             : en:Chapter 10
01:24:02.036                             : en:Chapter 11
01:30:26.546                             : en:Chapter 12
01:37:02.983                             : en:Chapter 13
01:42:40.112                             : en:Chapter 14
01:45:34.161                             : en:Chapter 15

[/left]

 

CAPITAN AMERICA: EL PRIMER VENGADOR
 


INFORMACIÓN

Título original
Captain America: The First Avenger
Año
2011
Duración
125 min.
País
Estados Unidos Estados Unidos
Director
Joe Johnston
Guión
Christopher Markus, Stephen McFeely (Cómic: Joe Simon, Jack Kirby)
Música
Alan Silvestri
Fotografía
Shelly Johnson
Reparto
Chris Evans, Hugo Weaving, Hayley Atwell, Tommy Lee Jones, Sebastian Stan, Stanley Tucci, Toby Jones, Dominic Cooper, Neal McDonough, Richard Armitage, David Bradley, Kenneth Choi, Natalie Dormer, Derek Luke, Jenna-Louise Coleman, JJ Feild, Bruno Ricci, Laura Haddock, Samuel L. Jackson
Productora
Marvel Studios / Paramount Pictures
Género
Acción. Fantástico | Superhéroes. Cómic. Marvel Comics. II Guerra Mundial. 3-D. Nazismo. Steampunk
Web Oficial
http://captainamerica.marvel.com/
Sinopsis
Nacido durante la Gran Depresión (años 30), Steve Rogers creció como un chico enclenque en una familia pobre. Horrorizado por las noticias que llegaban de Europa sobre los nazis, decidió enrolarse en el ejército; sin embargo, debido a su precaria salud, fue rechazado una y otra vez. Enternecido por sus súplicas, el General Chester Phillips le ofreció la oportunidad de participar en un experimento especial: la "Operación Renacimiento". Tras administrarle el ?Suero Super-Soldado? y bombardearlo con ?vitarrayos?, el cuerpo de Steve se hace perfecto. A continuación, se sometió a un intensivo programa de entrenamiento físico y táctico. Tres meses después, le encomendaron su primera misión como Capitán América. Armado con un escudo indestructible, emprenderá la guerra contra el Mal como centinela de la libertad y líder de los Vengadores. (FILMAFFINITY)

MEDIA INFO

 General
Unique ID                                : 230641712079325879482531185370644145627 (0xAD83FA5C5CA7D2C39E201B554DC8E5DB)
Complete name                            : SALON-HTPCPeliculas3HDCapitan America El Primer Vengador [BDrip 1080p AC3]Capitan America El Primer Vengador [BDrip 1080p AC3].mkv
Format                                   : Matroska
Format version                           : Version 2
File size                                : 13.2 GiB
Duration                                 : 2h 4mn
Overall bit rate                         : 15.2 Mbps
Encoded date                             : UTC 2011-11-22 23:54:54
Writing application                      : mkvmerge v3.3.0 ('Language') built on Mar 24 2010 14:59:24
Writing library                          : libebml v0.8.0 + libmatroska v0.9.0

Video
ID                                       : 1
Format                                   : AVC
Format/Info                              : Advanced Video Codec
Format profile                           : [email protected]
Format settings, CABAC                   : Yes
Format settings, ReFrames                : 5 frames
Codec ID                                 : V_MPEG4/ISO/AVC
Duration                                 : 2h 4mn
Bit rate                                 : 12.3 Mbps
Width                                    : 1 920 pixels
Height                                   : 816 pixels
Display aspect ratio                     : 2.35:1
Frame rate                               : 23.976 fps
Color space                              : YUV
Chroma subsampling                       : 4:2:0
Bit depth                                : 8 bits
Scan type                                : Progressive
Bits/(Pixel*Frame)                       : 0.328
Stream size                              : 10.4 GiB (79%)
Title                                    : Captain.America?The.First.Avenger.2011
Writing library                          : x264 core 116 r2074 2641b9e
Encoding settings                        : cabac=1 / ref=5 / deblock=1:-3:-3 / analyse=0x3:0x113 / me=umh / subme=11 / psy=1 / psy_rd=1.05:0.10 / mixed_ref=1 / me_range=48 / chroma_me=1 / trellis=2 / 8x8dct=1 / cqm=2 / deadzone=21,11 / fast_pskip=0 / chroma_qp_offset=-2 / threads=8 / sliced_threads=0 / nr=0 / decimate=1 / interlaced=0 / bluray_compat=0 / constrained_intra=0 / bframes=6 / b_pyramid=2 / b_adapt=2 / b_bias=0 / direct=3 / weightb=1 / open_gop=0 / weightp=2 / keyint=250 / keyint_min=23 / scenecut=40 / intra_refresh=0 / rc_lookahead=60 / rc=2pass / mbtree=1 / bitrate=12322 / ratetol=1.0 / qcomp=0.70 / qpmin=1 / qpmax=63 / qpstep=4 / cplxblur=20.0 / qblur=0.5 / vbv_maxrate=45000 / vbv_bufsize=40000 / nal_hrd=none / ip_ratio=1.40 / aq=2:1.00
Language                                 : English
Default                                  : No
Forced                                   : No

Audio #1
ID                                       : 2
Format                                   : AC-3
Format/Info                              : Audio Coding 3
Mode extension                           : CM (complete main)
Codec ID                                 : A_AC3
Duration                                 : 2h 4mn
Bit rate mode                            : Constant
Bit rate                                 : 640 Kbps
Channel(s)                               : 6 channels
Channel positions                        : Front: L C R, Side: L R, LFE
Sampling rate                            : 48.0 KHz
Bit depth                                : 16 bits
Compression mode                         : Lossy
Stream size                              : 569 MiB (4%)
Language                                 : Spanish
Default                                  : No
Forced                                   : No

Audio #2
ID                                       : 3
Format                                   : AC-3
Format/Info                              : Audio Coding 3
Mode extension                           : CM (complete main)
Codec ID                                 : A_AC3
Duration                                 : 2h 4mn
Bit rate mode                            : Constant
Bit rate                                 : 384 Kbps
Channel(s)                               : 6 channels
Channel positions                        : Front: L C R, Side: L R, LFE
Sampling rate                            : 48.0 KHz
Bit depth                                : 16 bits
Compression mode                         : Lossy
Stream size                              : 341 MiB (3%)
Default                                  : No
Forced                                   : No

Audio #3
ID                                       : 4
Format                                   : AC-3
Format/Info                              : Audio Coding 3
Mode extension                           : CM (complete main)
Codec ID                                 : A_AC3
Duration                                 : 2h 4mn
Bit rate mode                            : Constant
Bit rate                                 : 384 Kbps
Channel(s)                               : 6 channels
Channel positions                        : Front: L C R, Side: L R, LFE
Sampling rate                            : 48.0 KHz
Bit depth                                : 16 bits
Compression mode                         : Lossy
Stream size                              : 341 MiB (3%)
Default                                  : No
Forced                                   : No

Audio #4
ID                                       : 5
Format                                   : DTS
Format/Info                              : Digital Theater Systems
Codec ID                                 : A_DTS
Duration                                 : 2h 4mn
Bit rate mode                            : Constant
Bit rate                                 : 1 510 Kbps
Channel(s)                               : 6 channels
Channel positions                        : Front: L C R, Side: L R, LFE
Sampling rate                            : 48.0 KHz
Bit depth                                : 24 bits
Compression mode                         : Lossy
Stream size                              : 1.31 GiB (10%)
Title                                    : DTS-CORE 1536K
Language                                 : English
Default                                  : Yes
Forced                                   : No
[/left]
 
THOR

 


INFORMACIÓN

Título original
Thor
Año
2011
Duración
110 min.
País
Estados Unidos Estados Unidos
Director
Kenneth Branagh
Guión
Mark Protosevich (Personajes: Stan Lee, Jack Kirby)
Música
Patrick Doyle
Fotografía
Haris Zambarloukos
Reparto
Chris Hemsworth, Natalie Portman, Anthony Hopkins, Tom Hiddleston, Stellan Skarsgård, Idris Elba, Kat Dennings, Clark Gregg, Jaimie Alexander, Ray Stevenson, Tadanobu Asano, Josh Dallas, Colm Feore, Rene Russo, Samuel L. Jackson, Jeremy Renner, Dakota Goyo
Productora
Marvel Studios / Paramount Pictures
Género
Fantástico. Acción. Aventuras | Mitología. Superhéroes. Cómic. Marvel Comics. Cine épico. 3-D
Web Oficial
http://thor.marvel.com/
Sinopsis
Thor es un arrogante y codicioso guerrero cuya imprudencia desata una antigua guerra. Por ese motivo, su padre Odín lo castiga desterrándolo a la Tierra para que viva entre los hombres y descubra así el verdadero sentido de la humildad. Cuando el villano más peligroso de su mundo envía a la Tierra a las fuerzas más oscuras de Asgard, Thor se dará cuenta de lo que realmente hace falta para ser un verdadero héroe. (FILMAFFINITY)

MEDIA INFO


 
General
Unique ID                                : 253317439500186561612213248472015903540 (0xBE932A0A1E40D945B24976F5E1171B34)
Complete name                            : SALON-HTPCPeliculas3HDThor [BDrip 1080p AC3]Thor [BDrip 1080p AC3].mkv
Format                                   : Matroska
Format version                           : Version 2
File size                                : 8.67 GiB
Duration                                 : 1h 54mn
Overall bit rate                         : 10.8 Mbps
Encoded date                             : UTC 2011-08-30 01:59:34
Writing application                      : mkvmerge v3.3.0 ('Language') built on Mar 24 2010 14:59:24
Writing library                          : libebml v0.8.0 + libmatroska v0.9.0

Video
ID                                       : 1
Format                                   : AVC
Format/Info                              : Advanced Video Codec
Format profile                           : [email protected]
Format settings, CABAC                   : Yes
Format settings, ReFrames                : 5 frames
Codec ID                                 : V_MPEG4/ISO/AVC
Duration                                 : 1h 54mn
Bit rate                                 : 8 020 Kbps
Width                                    : 1 920 pixels
Height                                   : 816 pixels
Display aspect ratio                     : 2.35:1
Frame rate                               : 23.976 fps
Color space                              : YUV
Chroma subsampling                       : 4:2:0
Bit depth                                : 8 bits
Scan type                                : Progressive
Bits/(Pixel*Frame)                       : 0.214
Stream size                              : 6.26 GiB (72%)
Writing library                          : x264 core 116 r2074 2641b9e
Encoding settings                        : cabac=1 / ref=5 / deblock=1:0:0 / analyse=0x3:0x133 / me=umh / subme=8 / psy=1 / psy_rd=1.00:0.00 / mixed_ref=1 / me_range=16 / chroma_me=1 / trellis=1 / 8x8dct=1 / cqm=0 / deadzone=21,11 / fast_pskip=0 / chroma_qp_offset=-2 / threads=18 / sliced_threads=0 / nr=0 / decimate=1 / interlaced=0 / bluray_compat=0 / constrained_intra=0 / bframes=3 / b_pyramid=2 / b_adapt=1 / b_bias=0 / direct=1 / weightb=1 / open_gop=0 / weightp=2 / keyint=240 / keyint_min=24 / scenecut=40 / intra_refresh=0 / rc_lookahead=40 / rc=2pass / mbtree=1 / bitrate=8020 / ratetol=1.0 / qcomp=0.60 / qpmin=0 / qpmax=69 / qpstep=4 / cplxblur=20.0 / qblur=0.5 / ip_ratio=1.40 / aq=1:1.00
Language                                 : English
Default                                  : No
Forced                                   : No

Audio #1
ID                                       : 2
Format                                   : AC-3
Format/Info                              : Audio Coding 3
Mode extension                           : CM (complete main)
Codec ID                                 : A_AC3
Duration                                 : 1h 54mn
Bit rate mode                            : Constant
Bit rate                                 : 640 Kbps
Channel(s)                               : 6 channels
Channel positions                        : Front: L C R, Side: L R, LFE
Sampling rate                            : 48.0 KHz
Bit depth                                : 16 bits
Compression mode                         : Lossy
Stream size                              : 526 MiB (6%)
Language                                 : Spanish
Default                                  : Yes
Forced                                   : No

Audio #2
ID                                       : 3
Format                                   : DTS
Format/Info                              : Digital Theater Systems
Format profile                           : ES
Codec ID                                 : A_DTS
Duration                                 : 1h 54mn
Bit rate mode                            : Constant
Bit rate                                 : 1 510 Kbps
Channel(s)                               : 6 channels
Channel positions                        : Front: L C R, Side: L R, LFE
Sampling rate                            : 48.0 KHz
Bit depth                                : 24 bits
Compression mode                         : Lossy
Stream size                              : 1.21 GiB (14%)
Title                                    : english
Language                                 : English
Default                                  : No
Forced                                   : No

Audio #3
ID                                       : 5
Format                                   : AC-3
Format/Info                              : Audio Coding 3
Mode extension                           : CM (complete main)
Codec ID                                 : A_AC3
Duration                                 : 1h 54mn
Bit rate mode                            : Constant
Bit rate                                 : 640 Kbps
Channel(s)                               : 6 channels
Channel positions                        : Front: L C R, Side: L R, LFE
Sampling rate                            : 48.0 KHz
Bit depth                                : 16 bits
Compression mode                         : Lossy
Stream size                              : 526 MiB (6%)
Default                                  : No
Forced                                   : No

Text
ID                                       : 4
Format                                   : UTF-8
Codec ID                                 : S_TEXT/UTF8
Codec ID/Info                            : UTF-8 Plain Text
Title                                    : english
Language                                 : English
Default                                  : No
Forced                                   : No

[/left][/left]

 LOS VENGADORES



 


INFORMACIÓN

Título original
The Avengers
Año
2012
Duración
135 min.
País
Estados Unidos Estados Unidos
Director
Joss Whedon
Guión
Joss Whedon (Historia: Joss Whedon, Zak Penn)
Música
Alan Silvestri
Fotografía
Seamus McGarvey
Reparto
Robert Downey Jr., Chris Evans, Mark Ruffalo, Chris Hemsworth, Scarlett Johansson, Jeremy Renner, Tom Hiddleston, Samuel L. Jackson, Cobie Smulders, Clark Gregg, Gwyneth Paltrow, Stellan Skarsgård, Paul Bettany, Alexis Denisof, Jerzy Skolimowski, Tina Benko, Powers Boothe, Harry Dean Stanton, Stan Lee
Productora
Marvel Studios / Paramount Pictures
Género
Fantástico. Acción. Ciencia ficción | Superhéroes. Cómic. Marvel Comics. 3-D. Extraterrestres
Web Oficial
http://marvel.com/avengers_movie/
Sinopsis
Cuando un enemigo inesperado surge como una gran amenaza para la seguridad mundial, Nick Fury, director de la Agencia SHIELD, decide reclutar a un equipo para salvar al mundo de un desastre casi seguro. Adaptación del cómic de Marvel "Los Vengadores", el legendario grupo de superhéroes formado por, entre otros, Ironman, Hulk, Thor y Capitán América. (FILMAFFINITY)

MEDIA INFO

 
General
Unique ID                                : 219954775580261682472577119523753785422 (0xA579BFB5F36C977C861031E469E9784E)
Complete name                            : SALON-HTPCPeliculas3HDLos Vengadores [BDrip 1080p AC3]Los Vengadores [BDrip 1080p AC3].mkv
Format                                   : Matroska
Format version                           : Version 2
File size                                : 16.6 GiB
Duration                                 : 2h 22mn
Overall bit rate                         : 16.7 Mbps
Movie name                               : Los Vengadores BDrip 1080 Baalberith
Encoded date                             : UTC 2012-09-06 10:08:05
Writing application                      : mkvmerge v5.8.0 ('No Sleep / Pillow') built on Sep  2 2012 15:37:04
Writing library                          : libebml v1.2.3 + libmatroska v1.3.0

Video
ID                                       : 1
Format                                   : AVC
Format/Info                              : Advanced Video Codec
Format profile                           : [email protected]
Format settings, CABAC                   : Yes
Format settings, ReFrames                : 4 frames
Muxing mode                              : Header stripping
Codec ID                                 : V_MPEG4/ISO/AVC
Duration                                 : 2h 22mn
Bit rate                                 : 13.0 Mbps
Width                                    : 1 920 pixels
Height                                   : 1 080 pixels
Display aspect ratio                     : 16:9
Frame rate                               : 23.976 fps
Color space                              : YUV
Chroma subsampling                       : 4:2:0
Bit depth                                : 8 bits
Scan type                                : Progressive
Bits/(Pixel*Frame)                       : 0.261
Stream size                              : 12.6 GiB (76%)
Title                                    : Los Vengadores BDrip 1080 Baalberith
Writing library                          : x264 core 125 r2208 d9d2288
Encoding settings                        : cabac=1 / ref=4 / deblock=1:-3:-3 / analyse=0x3:0x133 / me=umh / subme=11 / psy=1 / psy_rd=0.85:0.00 / mixed_ref=1 / me_range=32 / chroma_me=1 / trellis=2 / 8x8dct=1 / cqm=0 / deadzone=21,11 / fast_pskip=0 / chroma_qp_offset=-2 / threads=18 / lookahead_threads=3 / sliced_threads=0 / nr=0 / decimate=1 / interlaced=0 / bluray_compat=0 / constrained_intra=0 / bframes=10 / b_pyramid=2 / b_adapt=2 / b_bias=0 / direct=3 / weightb=1 / open_gop=0 / weightp=2 / keyint=250 / keyint_min=23 / scenecut=40 / intra_refresh=0 / rc_lookahead=60 / rc=2pass / mbtree=1 / bitrate=13000 / ratetol=1.0 / qcomp=0.60 / qpmin=0 / qpmax=69 / qpstep=4 / cplxblur=20.0 / qblur=0.5 / ip_ratio=1.40 / aq=1:0.80
Language                                 : Spanish
Default                                  : Yes
Forced                                   : Yes

Audio #1
ID                                       : 2
Format                                   : DTS
Format/Info                              : Digital Theater Systems
Muxing mode                              : Header stripping
Codec ID                                 : A_DTS
Duration                                 : 2h 22mn
Bit rate mode                            : Constant
Bit rate                                 : 1 510 Kbps
Channel(s)                               : 6 channels
Channel positions                        : Front: L C R, Side: L R, LFE
Sampling rate                            : 48.0 KHz
Bit depth                                : 24 bits
Compression mode                         : Lossy
Stream size                              : 1.51 GiB (9%)
Title                                    : DTS [email protected] kbps Español
Language                                 : Spanish
Default                                  : Yes
Forced                                   : Yes

Audio #2
ID                                       : 3
Format                                   : AC-3
Format/Info                              : Audio Coding 3
Mode extension                           : CM (complete main)
Muxing mode                              : Header stripping
Codec ID                                 : A_AC3
Duration                                 : 2h 22mn
Bit rate mode                            : Constant
Bit rate                                 : 640 Kbps
Channel(s)                               : 6 channels
Channel positions                        : Front: L C R, Side: L R, LFE
Sampling rate                            : 48.0 KHz
Bit depth                                : 16 bits
Compression mode                         : Lossy
Stream size                              : 654 MiB (4%)
Title                                    : Ac3 [email protected] kbps
Language                                 : Spanish
Default                                  : No
Forced                                   : No

Audio #3
ID                                       : 4
Format                                   : DTS
Format/Info                              : Digital Theater Systems
Muxing mode                              : Header stripping
Codec ID                                 : A_DTS
Duration                                 : 2h 22mn
Bit rate mode                            : Constant
Bit rate                                 : 1 510 Kbps
Channel(s)                               : 6 channels
Channel positions                        : Front: L C R, Side: L R, LFE
Sampling rate                            : 48.0 KHz
Bit depth                                : 24 bits
Compression mode                         : Lossy
Stream size                              : 1.51 GiB (9%)
Title                                    : DTS [email protected] kbps Ingles
Language                                 : English
Default                                  : No
Forced                                   : No

Text #1
ID                                       : 5
Format                                   : UTF-8
Codec ID                                 : S_TEXT/UTF8
Codec ID/Info                            : UTF-8 Plain Text
Title                                    : Forzados
Language                                 : Spanish
Default                                  : Yes
Forced                                   : Yes

Text #2
ID                                       : 6
Format                                   : UTF-8
Codec ID                                 : S_TEXT/UTF8
Codec ID/Info                            : UTF-8 Plain Text
Title                                    : Spanish
Language                                 : Spanish
Default                                  : No
Forced                                   : No

Text #3
ID                                       : 7
Format                                   : UTF-8
Codec ID                                 : S_TEXT/UTF8
Codec ID/Info                            : UTF-8 Plain Text
Title                                    : English
Language                                 : English
Default                                  : No
Forced                                   : No

Menu
00:00:00.000                             : en:00:00:00.000
00:08:02.315                             : en:00:08:02.315
00:11:49.167                             : en:00:11:49.167
00:15:18.751                             : en:00:15:18.751
00:20:33.482                             : en:00:20:33.482
00:23:04.258                             : en:00:23:04.258
00:29:39.444                             : en:00:29:39.444
00:37:23.992                             : en:00:37:23.992
00:42:47.982                             : en:00:42:47.982
00:50:22.269                             : en:00:50:22.269
01:01:04.661                             : en:01:01:04.661
01:14:05.107                             : en:01:14:05.107
01:28:01.234                             : en:01:28:01.234
01:38:20.561                             : en:01:38:20.561
01:45:40.167                             : en:01:45:40.167
01:51:15.085                             : en:01:51:15.085
01:57:47.769                             : en:01:57:47.769
02:04:38.680                             : en:02:04:38.680
02:09:39.397                             : en:02:09:39.397
02:13:10.691                             : en:02:13:10.691


[/left]

 


Saga Los Vengadores Segunda Parte Sigue este Enlace 
http://www.identi.li/index.php?topic=251223 

 Si No Comentas  Previamente  En El Post No Espere Que Te Conteste Luego  Gracias por Comentar 
 
 
Saga Vengadores [BDrip 1080p] [74.4gb] TrueHD
40 Puntos Score: 8/10
Visitas: 6350 Favoritos: 2
Ver los usuarios que votaron...
8 Comentarios Saga Vengadores [BDrip 1080p] [74.4gb] TrueHD
woow, muy buen aporte
wow  , muchos megas
Excelente aporte amigo, muchas gracias  
@RyKnOw
Muchas gracias por comentar  
espero q subas unas de transformes asi de buena calidad con un buen bitrate exelente sige asi  
Para dejar un comentario Registrate! o.. eres ya usuario? Accede!