Solo audios latinos|trilogia hora punta|jackiechan




solo audios de las peliculas de hora punta para unir con el mkvtoolnix


Una pareja explosiva 1 | hora punta 1 | rush hour





Format                                   : AC-3
Format/Info                             : Audio Coding 3
Mode extension                        : CM (complete main)
Format settings, Endianness       : Big
Codec ID                                 : A_AC3
Duration                                 : 1h 37mn
Bit rate mode                           : Constant
Bit rate                                   : 512 Kbps
Channel(s)                               : 6 channels
Channel positions                       : Front: L C R, Side: L R, LFE
Sampling rate                           : 44.1 KHz
Bit depth                                 : 16 bits
Compression mode                      : Lossy
Stream size                               : 358 MiB (100%)
Title                                        : Español Latino
Default                                   : Yes
Forced                                    : No


Una pareja explosiva 2 | hora punta 2 | rush hour 2




Format                                   : AC-3
Format/Info                             : Audio Coding 3
Mode extension                        : CM (complete main)
Format settings, Endianness        : Big
Codec ID                                 : A_AC3
Duration                                  : 1h 29mn
Bit rate mode                           : Constant
Bit rate                                   : 512 Kbps
Channel(s)                               : 2 channels
Channel positions                      : Front: L R
Sampling rate                           : 48.0 KHz
Bit depth                                 : 16 bits
Compression mode                     : Lossy
Stream size                              : 329 MiB (100%)
Title                                       : LATINO ac3 2 canales
Language                                 : Spanish
Default                                    : Yes
Forced                                    : No


Una pareja explosiva 3 | hora punta 3 | rush hour 3



Format                                     : AC-3
Format/Info                               : Audio Coding 3
Mode extension                          : CM (complete main)
Format settings, Endianness         : Big
Codec ID                                  : A_AC3
Duration                                   : 1h 30mn
Bit rate mode                            : Constant
Bit rate                                    : 512 Kbps
Channel(s)                               : 6 channels
Channel positions                       : Front: L C R, Side: L R, LFE
Sampling rate                            : 44.1 KHz
Bit depth                                 : 16 bits
Compression mode                     : Lossy
Stream size                              : 332 MiB (100%)
Title                                       : Español Latino
Default                                    : Yes
Forced                                    : No




mas links de los audios latinos de la trilogia de hora punta:










Si gustas puedes visitar mis otros aportes:
BRUCE LEE

The big boos o Karate a Muerte... 1080p

Operacion dragon o Enter dragon / bruce lee 720p

Fist Of Fury (1972) bruce lee [720p dual]

El furor del dragon 1972 BRrit 1080p


MAS

Saga El planeta de los simios 1,2,3,4,5,6,7 Dual [1968-2011]

El Rey Escorpion 1 (2002) Bdrit 1080p, Dual

[Mega] Coleccion d Películas 1080p mkv ligero dual

Los amos del universo (1987) [1080p latino]


JACKIE CHAN
Jackie chan| New Police Story 2004 |1080p dual 5.1

Jackie chan|Una pareja explosiva 3|2007 1080p Dual

Jackie chan | Una pareja explosiva 2   2001  |720p Dual

Jackie chan|Una pareja explosiva 1 1998 |1080p Dual

Jackie chan|Rumble in the Bronx (1995) [720p] Dual

jackie chan|Drunken Master II|1994|brrit720p|dual

Jakie chan|Drunken Master|1978|brrit 720p

Solo audios latinos|trilogia hora punta|jackiechan
27 Puntos Score: 9/10
Visitas: 3212 Favoritos: 0
Ver los usuarios que votaron...
24 Comentarios Solo audios latinos|trilogia hora punta|jackiechan
@maximoalfa Buen aporte loco... pero quisiera pedirte un favor llevo buscan hace mucho tiempo el audio de La Armadura de Dios 2 o descargar la peli completa en 1080p yo la tengo en 1080p pero con audio en indio... te agradezco si me pudieras ayudar  
Cita Hoxkar: Mostrar

Comparteme esa pelicula es un clasico! de Jackie!!
pero el audio tiene que ser el original porque el re doblado no es bueno!
@Dieblito Si la tengo en audio ingles y indio Audio final pero no he logrado encontrar el audio latino ni castellano ni rastro.
espero que @maximoalfa nos pueda ayudar, pero podrias compartir los links de la armadura de dios 2 !
porfa!
si logro conseguir un adio espa?
@D4NILO gracias por tus puntos
@Dieblito @Hoxkar si yo creo que por ahy entre mis cosas las tengo pero no las eh arreglado, y si las quiero postear proximante, tambien el amigo @AsherB dice que estra tratando de sincronizar los audios, hojala y entre todos lo logremos para que queden en exenlente calidad tanto la 1 como la 2
auque tengo la armadura de dios 1 y 2 pero en dvd rit en latino pero la verdad no se que tal esten de sincronizadas solo los eh testaado poco y me paresen que estan bien quieren que las posteee? a ver que tal
muchisimas gracias  , te debo puntos   ,  estare tratando se re-sincronizar La armadura de dios 1 y Amor Inesperado, ojala me salga bien  
Cita maximoalfa: Mostrar

Cita maximoalfa: Mostrar

genial bro!!
Si porfa postealos!!, en la calidad mas decente que las tengas, pero me interesa ese audio latino original, porque redoblaje no es bueno!
@maximoalfa Sube el audio y yo tratare de sincronizarla y la posteare completa yo la tengo en BRrip 1080p
@Hoxkar @Dieblito hola disculpenme ya cheque la armaduara de dios 1 que tengo y es redoblaje por eso no la postee, tratera de conseguirla en el audio larino original ojala y alguno de nosotros lo podamos conseguir
Cita maximoalfa: Mostrar
Ya lo resincronize la armadura de dios 1 para la version Armour of God (1986)  m-HD  720p  Hindi  Eng  *BHATTI87* (1GB)  , aun no lo testee con la version Armour of God 1986 BluRay 720p AC3 x264-3Li (3.4GB)
Ambas son versiones no extendidas  y el audio latino original es atmbien no extendida
subiendo solo el audio en las proximas horas    , tambien estoy trabajando con la resincronizacion de Gorgeus
Cita AsherB: Mostrar
@Hoxkar bro cuando subes la armadura de dios 2!!
en 1080p!!
Por ahi vi que un amigo tiene el audio del primer dobalje en un DVD!!!

Porfa contactate con @maximoalfa
@Dieblito Loco te cuento que ya la tengo con doblaje en Castellano "Espa?
@Hoxkar Bro!! compartela el otro dia en el post de @maximoalfa un amigo dijo que tenia el audio del primer doblaje solo que estaba en mala calidad ?
perdon amigos no lo encuentro, pero ma?
amigos les debo una enorme disculpa, ya encontre la pelicula y esta en espa?
Jakie chan|El reino prohibido|2008 |1080p Dua
Jackie chan|Rumble in the Bronx (1995) [720p] Du
Jackie chan|Mi vecino es un espia|2010|720p
Jackien chan|Shanghai Noon 1 [2000] 1080p Dual
 si es pesado subirlo puede pasarlo a mp3,
muchas gracias nuevamente
@AsherB si los voy a subir no mas dame chanse y quieres los audio latinos supongo
Cita maximoalfa: Mostrar
, tomalo con calma  THX
los link donde estan=???
amigo me podrias pasar los links de mega por MP buena onda
Para dejar un comentario Registrate! o.. eres ya usuario? Accede!