Oops.. Este post tiene los enlaces eliminados!

Identi revisa las denuncias de los usuarios en busca de enlaces eliminados que no dejan descargar los archivos, este mensaje te informa que este post que estas viendo tiene los enlaces eliminados.

Usa el Buscador

Por favor, te recomendamos que uses el buscador para encontrar más alternativas.

DBZ: La batalla de los dioses (2013) latino 300MB

  • Categoría: Reciclaje
  • Publicado hace más de 3 años


Título: Dragon Ball Z: La batalla de los dioses 
Título original: Dragon Ball Z: Battle of Gods 

País: Japón 
Productora: Toei Animation Company 
Director: Mitsuo Hashimoto 
Guión: Akira Toriyama, Akira Toriyama, Yûsuke Watanabe 
Reparto: Animation 
Género: Animación. Ciencia ficción. Acción | Artes marciales. Dragon Ball. Manga 

Datos 
Format                         : MPEG-4

Format profile                 : Base Media

Codec ID                       : isom

File size                      : 300 MiB

Duration                       : 1h 25mn

Overall bit rate mode          : Variable

Overall bit rate               : 493 Kbps

Encoded date                   : UTC 2013-09-22 10:58:07

Tagged date                    : UTC 2013-09-22 10:58:07


Video

ID                             : 1

Format                         : AVC

Format/Info                    : Advanced Video Codec

Format profile                 : [email protected]

Format settings, CABAC         : Yes

Format settings, ReFrames      : 4 frames

Codec ID                       : avc1

Codec ID/Info                  : Advanced Video Coding

Duration                       : 1h 25mn

Bit rate                       : 426 Kbps

Maximum bit rate               : 3 589 Kbps

Width                          : 848 pixels

Height                         : 480 pixels

Display aspect ratio           : 16:9

Frame rate mode                : Constant

Frame rate                     : 23.976 fps

Color space                    : YUV

Chroma subsampling             : 4:2:0

Bit depth                      : 8 bits

Scan type                      : Progressive

Bits/(Pixel*Frame)             : 0.044

Stream size                    : 259 MiB (86%)

Title                          : Ball.Z.La.Batalla.De.Los.Dioses.BrRip.720p.Audio.Latino.www.descargarenunlink.com.264#trackID=1:[email protected]



Audio
ID                             : 2

Format                         : AAC

Format/Info                    : Advanced Audio Codec

Format profile                 : HE-AAC / LC

Codec ID                       : 40

Duration                       : 1h 24mn

Bit rate mode                  : Variable

Bit rate                       : 64.0 Kbps

Maximum bit rate               : 68.6 Kbps

Channel count                  : 2 channels

Channel positions              : Front: L R

Sampling rate                  : 44.1 KHz / 22.05 KHz

Compression mode               : Lossy

Stream size                    : 38.9 MiB (13%)

Encoded date                   : UTC 2013-09-22 10:18:23

Tagged date                    : UTC 2013-09-22 10:58:10




La historia se sitúa varios años después de la batalla con Majin Buu. Bils, el Dios de la destrucción que mantenía el equilibrio del universo, se ha despertado de un largo sueño. Al escuchar rumores sobre un saiyajin que ha vencido a Freezer, Bils parte a la búsqueda de Goku. Emocionado por el hecho de que haya aparecido un oponente tan poderoso tras tanto tiempo, Goku ignora las advertencias de Kaito y decide enfrentarse a él. 







Cierro los comentarios por que no me gustan las notificaciones, el video se ve bien, el audio es efectivamente latino.

DBZ: La batalla de los dioses (2013) latino 300MB
16 Puntos Score: 5.3/10
Visitas: 1601 Favoritos: 1
Ver los usuarios que votaron...
0 Comentarios DBZ: La batalla de los dioses (2013) latino 300MB
Este post esta cerrado y no se permiten comentarios.
Para dejar un comentario Registrate! o.. eres ya usuario? Accede!